BitTorrentTracker PerecTracker.org
BitTorrentTracker PerecTracker.org
    
Регистрация  ·  Вход
 
 · 
Забыли пароль?

  • Кукла / The Boy (Уильям Брент Белл / William Brent Bell) [2016, США, Китай, Канада, ужасы, триллер, WEB-DLRip-AVC] Dub

    Ответить на тему
     
    Автор Сообщение

    rechyn

    Создавать темы 26-Апр-2016 20:03

           

    [Цитировать]

    Кукла / The Boy
    ««Каждый ребенок должен быть любим»»
    -Страна: США, Китай, Канада
    Жанр: ужасы, триллер
    Год выпуска: 2016
    Продолжительность: 01:33:20
    Перевод : Профессиональный (полное дублирование) (iTunes)
    Навигация по главам: есть
    Cубтитры: нет
    Режиссер: Уильям Брент Белл / William Brent Bell
    В ролях: Лорен Кохэн, Руперт Эванс, Джеймс Расселл, Джим Нортон, Диана Хардкэсл, Бен Робсон, Джетт Клине, Стефани Николь Лемелин
    Описание: Благополучная английская семья нанимает для своего сына американскую няню. Приехав на новое место работы, няня обнаруживает, что ее подопечный — вовсе не настоящий мальчик, а кукла в человеческий рост, с которой обращаются, как с живым человеком. Но тревожные события, происходящие после того, как няня нарушает установленные строгие правила, заставляют её поверить в то, что кукла действительно может быть живой…

    Качество видео: Web-DLRip-AVC (исходник - T_BOY_WEB_DL_1080p-BLUEBIRD)
    Формат видео: MKV
    Видео: x264, 1152x482 (2,40:1), 23,976 fps, ~1860 kbps, 0.134 bit/pixel
    Аудио: 48 kHz, AC3 Dolby Digital, 3/2 (L,C,R,l,r) + LFE ch, ~384 kbps
    MediaInfo | x264 log
    Format : Matroska
    Format version : Version 4 / Version 2
    File size : 1.46 GiB
    Duration : 1h 33mn
    Overall bit rate : 2 244 Kbps
    Movie name : Кукла / The Boy (2016) :: AFM ::
    Encoded date : UTC 2016-04-26 10:46:26
    Writing application : mkvmerge v8.3.0 ('Over the Horizon') 32bit
    Writing library : libebml v1.3.1 + libmatroska v1.4.2
    Video
    ID : 1
    Format : AVC
    Format/Info : Advanced Video Codec
    Format profile : High@L4.1
    Format settings, CABAC : Yes
    Format settings, ReFrames : 10 frames
    Codec ID : V_MPEG4/ISO/AVC
    Duration : 1h 33mn
    Bit rate : 1 860 Kbps
    Width : 1 152 pixels
    Height : 482 pixels
    Display aspect ratio : 2.40:1
    Frame rate mode : Constant
    Frame rate : 25.000 fps
    Color space : YUV
    Chroma subsampling : 4:2:0
    Bit depth : 8 bits
    Scan type : Progressive
    Bits/(Pixel*Frame) : 0.134
    Stream size : 1.18 GiB (81%)
    Title : WEB_DL-Rip by AFM [RuTracker.org]
    Writing library : x264 core 148 r2665+53 6629127 t_mod_Custom [8-bit@all X86_64]
    Encoding settings : cabac=1 / ref=10 / deblock=1:-2:-1 / analyse=0x3:0x113 / me=umh / subme=10 / psy=1 / fade_compensate=0.00 / psy_rd=1.00:0.00 / mixed_ref=1 / me_range=32 / chroma_me=1 / trellis=2 / 8x8dct=1 / cqm=0 / deadzone=21,11 / fast_pskip=0 / chroma_qp_offset=-2 / threads=6 / lookahead_threads=1 / sliced_threads=0 / nr=0 / decimate=0 / interlaced=0 / bluray_compat=0 / constrained_intra=0 / fgo=0 / bframes=9 / b_pyramid=2 / b_adapt=2 / b_bias=0 / direct=3 / weightb=1 / open_gop=0 / weightp=2 / keyint=250 / keyint_min=25 / scenecut=40 / intra_refresh=0 / rc_lookahead=40 / rc=2pass / mbtree=0 / bitrate=1860 / ratetol=1.0 / qcomp=0.65 / qpmin=0:0:0 / qpmax=69:69:69 / qpstep=4 / cplxblur=20.0 / qblur=0.5 / vbv_maxrate=50000 / vbv_bufsize=62500 / nal_hrd=none / filler=0 / ip_ratio=1.35 / pb_ratio=1.30 / aq=1:0.90 / aq-sensitivity=10.00 / aq-factor=1.00:1.00:1.00 / aq2=0 / aq3=0
    Language : English
    Default : Yes
    Forced : No
    Audio
    ID : 2
    Format : AC-3
    Format/Info : Audio Coding 3
    Mode extension : CM (complete main)
    Format settings, Endianness : Big
    Codec ID : A_AC3
    Duration : 1h 33mn
    Bit rate mode : Constant
    Bit rate : 384 Kbps
    Channel(s) : 6 channels
    Channel positions : Front: L C R, Side: L R, LFE
    Sampling rate : 48.0 KHz
    Compression mode : Lossy
    Stream size : 256 MiB (17%)
    Title : Dub, AC3 5.1 ~384 kbps
    Language : Russian
    Default : Yes
    Forced : No
    Menu
    00:00:00.000 : en:1
    00:06:10.840 : en:2
    00:11:46.360 : en:3
    00:17:04.080 : en:4
    00:22:31.680 : en:5
    00:29:26.520 : en:6
    00:36:25.000 : en:7
    00:42:50.480 : en:8
    00:51:42.680 : en:9
    00:58:30.600 : en:10
    01:05:11.040 : en:11
    01:12:07.000 : en:12
    01:17:48.360 : en:13
    01:22:38.680 : en:14
    01:27:53.920 : en:15

    x264

    x264 [info]: frame I:1039 Avg QP:13.99 size: 64116
    x264 [info]: frame P:36533 Avg QP:16.73 size: 19642
    x264 [info]: frame B:102418 Avg QP:18.99 size: 5046
    x264 [info]: consecutive B-frames: 2.4% 4.6% 7.1% 63.4% 8.7% 12.0% 1.1% 0.5% 0.1% 0.2%
    x264 [info]: mb I I16..4: 5.1% 79.3% 15.5%
    x264 [info]: mb P I16..4: 0.8% 7.4% 1.1% P16..4: 39.7% 30.0% 14.2% 0.0% 0.0% skip: 6.8%
    x264 [info]: mb B I16..4: 0.1% 0.7% 0.1% B16..8: 38.6% 11.4% 2.2% direct: 3.7% skip:43.2% L0:41.1% L1:48.4% BI:10.5%
    x264 [info]: 8x8 transform intra:79.7% inter:57.2%
    x264 [info]: direct mvs spatial:97.3% temporal:2.7%
    x264 [info]: coded y,uvDC,uvAC intra: 82.6% 81.4% 56.2% inter: 18.3% 15.4% 8.1%
    x264 [info]: i16 v,h,dc,p: 31% 11% 8% 50%
    x264 [info]: i8 v,h,dc,ddl,ddr,vr,hd,vl,hu: 24% 9% 7% 7% 10% 11% 10% 11% 11%
    x264 [info]: i4 v,h,dc,ddl,ddr,vr,hd,vl,hu: 32% 6% 4% 8% 11% 11% 10% 9% 9%
    x264 [info]: i8c dc,h,v,p: 39% 24% 23% 14%
    x264 [info]: Weighted P-Frames: Y:98.0% UV:1.4%
    x264 [info]: ref P L0: 52.1% 6.7% 19.4% 5.9% 5.2% 3.2% 3.1% 1.5% 1.6% 1.2% 0.2% 0.0%
    x264 [info]: ref B L0: 75.6% 12.4% 4.7% 2.5% 1.6% 1.4% 1.0% 0.5% 0.3%
    x264 [info]: ref B L1: 94.9% 5.1%
    x264 [info]: kb/s:1858.66

    Скриншоты

    с названием

    Скачать .torrent

    Скачать торрент-файл бесплатно и на максимальной скорости!

    Как скачивать? · Что такое торрент? · Рейтинг и ограничения

    !ВНИМАНИЕ!
    Сайт не распространяет и не хранит электронные версии произведений, а занимается лишь лишь предоставлением доступа к создаваемому пользователями каталогу ссылок на торрент-файлы, которые содержат только списки хеш-сумм, убедительная просьба с жалобами обращаться напрямую к пользователю. Файлы для обмена на трекере предоставлены пользователями сайта, и администрация не несёт ответственности за их содержание. Просьба не заливать файлы, защищенные авторскими правами, а также файлы нелегального содержания!


    _________________
    [Профиль] [ЛС]
    Показать сообщения:    
    Ответить на тему

    Текущее время: Сегодня, в 12:46

    Часовой пояс: GMT + 2



    Вы не можете начинать темы
    Вы не можете отвечать на сообщения
    Вы не можете редактировать свои сообщения
    Вы не можете удалять свои сообщения
    Вы не можете голосовать в опросах
    Вы не можете прикреплять файлы к сообщениям
    Вы не можете скачивать файлы