BitTorrentTracker PerecTracker.org
BitTorrentTracker PerecTracker.org
    
Регистрация  ·  Вход
 
 · 
Забыли пароль?

  • Убийства по чёткам / The Rosary Murders (Фред Уолтон / Fred Walton) [1987, США, триллер, детектив, BDRemux 1080p] DVO (ТВ-6) + VO (Никита Севастьянов) + Sub Eng + Original Eng

    Ответить на тему
     
    Автор Сообщение

    Light

    Создавать темы 26-Апр-2016 15:58

           

    [Цитировать]

    -Убийства по чёткам / The Rosary Murders-Страна: США
    Жанр: триллер, детектив
    Год выпуска: 1987
    Продолжительность: 01:45:09-Перевод: Профессиональный (двухголосый закадровый) ТВ-6
    Перевод 2: Одноголосый закадровый Никита Севастьянов
    Cубтитры: английские
    Оригинальная аудиодорожка: английский-Режиссер: Фред Уолтон / Fred Walton
    В ролях: Дональд Сазерленд, Чарльз Дёрнинг, Рекс Эверхарт, Стефан Гираш, Джими Кеннеди, Том Мардиросян, Марк Марголис, Джеймс Мерто, Лупе Онтиверос, Эддисон Пауэлл, Эд Руффало-Описание: В Детройте совершена серия жестоких убийств. Жертвами стали католические священники и монахини, в руках которых убийца оставляет чёрные чётки. А после в церкви исповедуется человек, который признаётся в убийствах, но священник Боб Кеслер, соблюдая тайну исповеди, не может сообщить об этом в полицию…-Сэмпл-Тип релиза: BDRemux 1080p
    Контейнер: MKV
    Видео: MPEG-4 AVC Video / 21949 kbps / 1080p / 23,976 fps / 16:9 / High Profile 4.1
    Аудио: Russian / Dolby Digital Audio / 2.0 / 48 kHz / 192 kbps
    Аудио 2: Russian / Dolby Digital Audio / 2.0 / 48 kHz / 192 kbps
    Аудио 3: English / DTS-HD Master Audio / 2.0 / 48 kHz / 1669 kbps / 16-bit (DTS Core: 2.0 / 48 kHz / 1509 kbps / 16-bit)
    Формат субтитров: softsub (SRT)

    MI

    GeneralUnique ID : 218576496007812537801256749309544242218 (0xA4704D48031CC87DBA5E17B2C13A1C2A)Complete name : S:\На хранении\Убийства по чёткам (1987. The Rosary Murders).mkvFormat : MatroskaFormat version : Version 4 / Version 2File size : 17.6 GiBDuration : 1h 45mnOverall bit rate mode : VariableOverall bit rate : 24.0 MbpsMovie name : Release for RuTrackerEncoded date : UTC 2016-04-24 22:04:53Writing application : mkvmerge v9.0.1 ('Obstacles') 64bitWriting library : libebml v1.3.3 + libmatroska v1.4.4Cover : YesAttachments : Cover.jpg
    VideoID : 1Format : AVCFormat/Info : Advanced Video CodecFormat profile : High@L4.1Format settings, CABAC : YesFormat settings, ReFrames : 3 framesFormat settings, GOP : M=3, N=12Codec ID : V_MPEG4/ISO/AVCDuration : 1h 45mnBit rate mode : VariableBit rate : 21.9 MbpsMaximum bit rate : 32.3 MbpsWidth : 1 920 pixelsHeight : 1 080 pixelsDisplay aspect ratio : 16:9Frame rate mode : ConstantFrame rate : 23.976 (24000/1001) fpsStandard : NTSCColor space : YUVChroma subsampling : 4:2:0Bit depth : 8 bitsScan type : ProgressiveBits/(Pixel*Frame) : 0.441Stream size : 16.1 GiB (91%)Title : The Rosary Murders 1987 Blu-ray AVC DTS-HD MA 2.0-BaggerInc@BluRGLanguage : EnglishDefault : YesForced : NoColor range : LimitedColor primaries : BT.709Transfer characteristics : BT.709Matrix coefficients : BT.709
    Audio #1ID : 2Format : AC-3Format/Info : Audio Coding 3Mode extension : CM (complete main)Format settings, Endianness : BigCodec ID : A_AC3Duration : 1h 45mnBit rate mode : ConstantBit rate : 192 KbpsChannel(s) : 2 channelsChannel positions : Front: L RSampling rate : 48.0 KHzFrame rate : 31.250 fps (1536 spf)Compression mode : LossyStream size : 144 MiB (1%)Title : DVO [ТВ-6]Language : RussianDefault : YesForced : No
    Audio #2ID : 3Format : AC-3Format/Info : Audio Coding 3Mode extension : CM (complete main)Format settings, Endianness : BigCodec ID : A_AC3Duration : 1h 45mnBit rate mode : ConstantBit rate : 192 KbpsChannel(s) : 2 channelsChannel positions : Front: L RSampling rate : 48.0 KHzFrame rate : 31.250 fps (1536 spf)Compression mode : LossyStream size : 144 MiB (1%)Title : Никита СевастьяновLanguage : RussianDefault : NoForced : No
    Audio #3ID : 4Format : DTSFormat/Info : Digital Theater SystemsFormat profile : MA / CoreMode : 16Format settings, Endianness : BigCodec ID : A_DTSDuration : 1h 45mnBit rate mode : Variable / ConstantBit rate : 1 671 Kbps / 1 509 KbpsChannel(s) : 2 channelsChannel positions : Front: L RSampling rate : 48.0 KHzFrame rate : 93.750 fps (512 spf)Bit depth : 16 bitsCompression mode : Lossless / LossyStream size : 1.23 GiB (7%)Language : EnglishDefault : NoForced : No
    TextID : 5Format : UTF-8Codec ID : S_TEXT/UTF8Codec ID/Info : UTF-8 Plain TextDuration : 1h 44mnBit rate : 30 bpsCount of elements : 644Stream size : 23.0 KiB (0%)Language : EnglishDefault : NoForced : No
    Menu00:00:00.000 : en:00:00:00.00000:12:49.185 : en:00:12:49.18500:23:26.655 : en:00:23:26.65500:37:25.994 : en:00:37:25.99400:49:20.749 : en:00:49:20.74901:05:18.540 : en:01:05:18.54001:17:25.891 : en:01:17:25.89101:27:43.592 : en:01:27:43.592
    Скриншоты

    Зеркало


    Цитата:
    Цитата:

    • За субтитры и русский звук спасибо Spiellberg и .
    • За дорожку с переводом телеканала ТВ-6 спасибо Sp1end1d. Есть 2 вставки из одноголосого перевода. Первые 8 минут - одноголосый перевод.
    • Сохранены оригинальные чаптеры как на Blu-ray.
    Скачать .torrent

    Скачать торрент-файл бесплатно и на максимальной скорости!

    Как скачивать? · Что такое торрент? · Рейтинг и ограничения

    !ВНИМАНИЕ!
    Сайт не распространяет и не хранит электронные версии произведений, а занимается лишь лишь предоставлением доступа к создаваемому пользователями каталогу ссылок на торрент-файлы, которые содержат только списки хеш-сумм, убедительная просьба с жалобами обращаться напрямую к пользователю. Файлы для обмена на трекере предоставлены пользователями сайта, и администрация не несёт ответственности за их содержание. Просьба не заливать файлы, защищенные авторскими правами, а также файлы нелегального содержания!


    _________________
    [Профиль] [ЛС]
    Показать сообщения:    
    Ответить на тему

    Текущее время: Сегодня, в 03:11

    Часовой пояс: GMT + 2



    Вы не можете начинать темы
    Вы не можете отвечать на сообщения
    Вы не можете редактировать свои сообщения
    Вы не можете удалять свои сообщения
    Вы не можете голосовать в опросах
    Вы не можете прикреплять файлы к сообщениям
    Вы не можете скачивать файлы