BitTorrentTracker PerecTracker.org
BitTorrentTracker PerecTracker.org
    
Регистрация  ·  Вход
 
 · 
Забыли пароль?

  • Менялы (Георгий Шенгелия) [1992, комедия, SATRip-AVC]

    Ответить на тему
     
    Автор Сообщение

    Flirldrerve

    Создавать темы 26-Апр-2016 11:53

           

    [Цитировать]

    Менялы
    Жанр: комедия
    Год выпуска: 1992
    Продолжительность: 01:27:51
    Режиссёр: Георгий Шенгелия
    В ролях: Владимир Ильин, Андрей Пономарев, Юрий Горин, Валентина Теличкина, Оксана Мысина, Валентина Березуцкая, Вадим Захарченко
    Описание: СССР. Времена денежной реформы 1961 года. Сто рублей в одночасье превратились в десять. Но медных денег реформа не коснулась. Предприимчивый администратор парка культуры и отдыха Прохор Игнатьевич, желая увеличить свой капитал, пытается обменять крупную сумму на мелкую медь с помощью простодушного водителя Жоры Гракина и экс-зека Роланда Бабаскина...
    Доп. информация: За спасибо Cheef mate

    Качество видео: SATRip-AVC
    Формат видео: MKV
    Видео: AVC (H.264), 696x524 (4:3), 2030 kbps, 25 fps, 0.223 bit\pixel
    Аудио: AC3, 48.0 kHz, stereo, 192 kbps

    Лог кодирования

    x264 [info]: frame I:761 Avg QP:16.81 size: 59338
    x264 [info]: frame P:29788 Avg QP:19.70 size: 24423
    x264 [info]: frame B:101217 Avg QP:22.02 size: 5581

    MediaInfo

    General
    Unique ID : 239764249025438005297751445550293930451 (0xB460EA2869DA7A5AACA1C62E0F7551D3)
    Complete name : D:\Видео\Фильмы\Менялы (1992).mkv
    Format : Matroska
    Format version : Version 4 / Version 2
    File size : 1.36 GiB
    Duration : 1h 27mn
    Overall bit rate : 2 224 Kbps
    Encoded date : UTC 2016-04-25 13:07:01
    Writing application : mkvmerge v8.3.0 ('Over the Horizon') 64bit
    Writing library : libebml v1.3.1 + libmatroska v1.4.2
    Video
    ID : 1
    Format : AVC
    Format/Info : Advanced Video Codec
    Format profile : High@L4.1
    Format settings, CABAC : Yes
    Format settings, ReFrames : 15 frames
    Codec ID : V_MPEG4/ISO/AVC
    Duration : 1h 27mn
    Bit rate : 2 030 Kbps
    Width : 696 pixels
    Height : 524 pixels
    Display aspect ratio : 4:3
    Frame rate mode : Constant
    Frame rate : 25.000 fps
    Color space : YUV
    Chroma subsampling : 4:2:0
    Bit depth : 8 bits
    Scan type : Progressive
    Bits/(Pixel*Frame) : 0.223
    Stream size : 1.25 GiB (91%)
    Writing library : x264 core 148 r2638 7599210
    Encoding settings : cabac=1 / ref=15 / deblock=1:-2:-2 / analyse=0x3:0x113 / me=umh / subme=9 / psy=1 / psy_rd=1.05:0.10 / mixed_ref=1 / me_range=32 / chroma_me=1 / trellis=2 / 8x8dct=1 / cqm=0 / deadzone=21,11 / fast_pskip=1 / chroma_qp_offset=-3 / threads=6 / lookahead_threads=1 / sliced_threads=0 / nr=0 / decimate=1 / interlaced=0 / bluray_compat=0 / constrained_intra=0 / bframes=8 / b_pyramid=2 / b_adapt=2 / b_bias=0 / direct=3 / weightb=1 / open_gop=0 / weightp=2 / keyint=250 / keyint_min=25 / scenecut=40 / intra_refresh=0 / rc_lookahead=60 / rc=2pass / mbtree=1 / bitrate=2030 / ratetol=1.0 / qcomp=0.60 / qpmin=0 / qpmax=69 / qpstep=4 / cplxblur=20.0 / qblur=0.5 / vbv_maxrate=14000 / vbv_bufsize=14000 / nal_hrd=none / filler=0 / ip_ratio=1.40 / aq=1:1.00
    Default : Yes
    Forced : No
    Audio
    ID : 2
    Format : AC-3
    Format/Info : Audio Coding 3
    Mode extension : CM (complete main)
    Format settings, Endianness : Big
    Codec ID : A_AC3
    Duration : 1h 27mn
    Bit rate mode : Constant
    Bit rate : 192 Kbps
    Channel(s) : 2 channels
    Channel positions : Front: L R
    Sampling rate : 48.0 KHz
    Frame rate : 31.250 fps (1536 spf)
    Compression mode : Lossy
    Stream size : 121 MiB (9%)
    Default : Yes
    Forced : No

    Скриншоты

    Скачать .torrent

    Скачать торрент-файл бесплатно и на максимальной скорости!

    Как скачивать? · Что такое торрент? · Рейтинг и ограничения

    !ВНИМАНИЕ!
    Сайт не распространяет и не хранит электронные версии произведений, а занимается лишь лишь предоставлением доступа к создаваемому пользователями каталогу ссылок на торрент-файлы, которые содержат только списки хеш-сумм, убедительная просьба с жалобами обращаться напрямую к пользователю. Файлы для обмена на трекере предоставлены пользователями сайта, и администрация не несёт ответственности за их содержание. Просьба не заливать файлы, защищенные авторскими правами, а также файлы нелегального содержания!


    _________________
    [Профиль] [ЛС]
    Показать сообщения:    
    Ответить на тему

    Текущее время: Сегодня, в 16:24

    Часовой пояс: GMT + 2



    Вы не можете начинать темы
    Вы не можете отвечать на сообщения
    Вы не можете редактировать свои сообщения
    Вы не можете удалять свои сообщения
    Вы не можете голосовать в опросах
    Вы не можете прикреплять файлы к сообщениям
    Вы не можете скачивать файлы