BitTorrentTracker PerecTracker.org
BitTorrentTracker PerecTracker.org
    
Регистрация  ·  Вход
 
 · 
Забыли пароль?

  • Злостный видеоигровой задрот: Кино / Angry Video Game Nerd: The Movie (Кевин Финн, Джеймс Рольф / Kevin Finn, James D. Rolfe) [2014, США, комедия, фантастика, пародия, BDRemux 1080p] MVO (т.о. "ПИРИВОТ") + MVO + Sub Rus, Eng + Original Eng

    Ответить на тему
     
    Автор Сообщение

    Light

    Создавать темы 26-Апр-2016 11:53

           

    [Цитировать]

    Злобный Видеоигровой Задрот / Angry Video Game Nerd: The Movie
    Страна: США
    Жанр: Комедия, фантастика, пародия
    Год выпуска: 2014
    Продолжительность: 1:54:50
    Перевод 1: Любительский (многоголосый закадровый) т.о. "ПИРИВОТ"
    Перевод 2: Любительский (многоголосый закадровый)
    Cубтитры: русские, английские
    Оригинальная аудиодорожка: английский
    Режиссер: Кевин Финн и Джеймс Рольф / Kevin Finn, James D. Rolfe
    Описание: История загадочного захоронения копий "самой ужасной игры всех времён" - "E.T." ("Инопланетянин" С. Спилберга) вот уже 30 лет будоражит умы самых заядлых геймеров по всему миру. В том числе и "Злобного Видеоигрового Задрота", который до смерти ненавидит эту игру и пойдёт на всё, лишь бы эта история не оказалась правдой. Но тут, как назло, некая игровая компания задумала выпустить её сиквел - "E.T. 2", и главной пиар-силой своего проекта решила сделать именно Задрота: ведь стоит ему только сказать своим фанатам, что "Игра - полный отстой", как они раскупят её сию же минуту. Решая помешать этим планам и разрушить нелепый миф, Задрот отправляется на место сомнительного захоронения, где его ждёт правда не только об игре "E.T.", но и том, что Федеральные организации долгие годы скрывали за всей этой историей...
    Сэмпл: https://www.sendspace.com/file/tt1bth
    Тип релиза: BDRemux 1080p
    Контейнер: MKV
    Видео: MPEG-2, 1920x1080, 16:9, 14504 kbps, 23.976 fps
    Аудио 1: MP3, 256 kbps, 48000 Hz, 2 ch (русская дорога ПИРИВОТ)
    Аудио 2: AC3, 192 kbps, 48000 Hz, 2 ch (русская дорога Vina, Artimiz, Хайман, Miori)
    Аудио 3: AC3, 448 kbps, 48000 Hz, 5.1 ch (оригинал)
    Аудио 4: AC3, 192 kbps, 48000 Hz, 2 ch (комментарии Джеймса Рольфа)
    Формат субтитров: softsub (SRT)

    MediaInfo

    Общее
    Уникальный идентификатор : 232185065276732714526251975960899751773 (0xAEAD378C5E387BA2BFC4D424BF160F5D)
    Формат : Matroska
    Версия формата : Version 4 / Version 2
    Размер файла : 12,0 Гбайт
    Продолжительность : 1 ч. 54 м.
    Режим общего битрейта : Переменный
    Общий поток : 14,9 Мбит/сек
    Дата кодирования : UTC 2016-04-19 16:45:01
    Программа кодирования : mkvmerge v9.0.1 ('Obstacles') 64bit
    Библиотека кодирования : libebml v1.3.3 + libmatroska v1.4.4
    Видео
    Идентификатор : 1
    Формат : MPEG Video
    Версия формата : Version 2
    Профиль формата : Main@High
    Параметр BVOP формата : Да
    Параметр матрицы формата : По умолчанию
    Параметр GOP формата : M=3, N=12
    Идентификатор кодека : V_MPEG2
    Идентификатор кодека/Информация : MPEG 1 or 2 Video
    Продолжительность : 1 ч. 54 м.
    Вид битрейта : Переменный
    Битрейт : 13,8 Мбит/сек
    Максимальный битрейт : 14,6 Мбит/сек
    Ширина : 1920 пикселей
    Высота : 1080 пикселей
    Соотношение сторон : 16:9
    Режим частоты кадров : Постоянный
    Частота кадров : 23,976 (24000/1001) кадра/сек
    Цветовое пространство : YUV
    Субдискретизация насыщенности : 4:2:0
    Битовая глубина : 8 бит
    Тип развёртки : Прогрессивная
    Метод сжатия : С потерями
    Бит/(Пиксели*Кадры) : 0.278
    Временной код первого кадра : 00:00:00:00
    Оригинал временного кода : Group of pictures header
    GOP, открыто/закрыто : Закрыто
    Размер потока : 11,1 Гбайт (93%)
    Заголовок : Angry Video Game Nerd: The Movie
    Default : Да
    Forced : Нет
    Аудио #1
    Идентификатор : 2
    Формат : MPEG Audio
    Версия формата : Version 1
    Профиль формата : Layer 3
    Режим : Joint stereo
    Идентификатор кодека : A_MPEG/L3
    Идентификатор кодека/Подсказка : MP3
    Продолжительность : 1 ч. 54 м.
    Вид битрейта : Постоянный
    Битрейт : 256 Кбит/сек
    Каналы : 2 канала
    Частота : 48,0 КГц
    Частота кадров : 41,667 кадра/сек (1152 spf)
    Метод сжатия : С потерями
    Задержка видео : -65 мс.
    Размер потока : 210 Мбайт (2%)
    Заголовок : ПИРИВОТ
    Библиотека кодирования : LAME3.99r
    Настройки программы : -m j -V 4 -q 3 -lowpass 19.7
    Язык : Russian
    Default : Да
    Forced : Да
    Аудио #2
    Идентификатор : 3
    Формат : AC-3
    Формат/Информация : Audio Coding 3
    Расширение режима : CM (complete main)
    Параметр Endianness формата : Big
    Идентификатор кодека : A_AC3
    Продолжительность : 1 ч. 54 м.
    Вид битрейта : Постоянный
    Битрейт : 192 Кбит/сек
    Каналы : 2 канала
    Расположение каналов : Front: L R
    Частота : 48,0 КГц
    Частота кадров : 31,250 кадров/сек (1536 spf)
    Метод сжатия : С потерями
    Задержка видео : -65 мс.
    Размер потока : 158 Мбайт (1%)
    Заголовок : Vina, Artimiz, Хайман и тд
    Язык : Russian
    Default : Нет
    Forced : Нет
    Аудио #3
    Идентификатор : 4
    Формат : AC-3
    Формат/Информация : Audio Coding 3
    Расширение режима : CM (complete main)
    Параметр Endianness формата : Big
    Идентификатор кодека : A_AC3
    Продолжительность : 1 ч. 54 м.
    Вид битрейта : Постоянный
    Битрейт : 448 Кбит/сек
    Каналы : 6 каналов
    Расположение каналов : Front: L C R, Side: L R, LFE
    Частота : 48,0 КГц
    Частота кадров : 31,250 кадров/сек (1536 spf)
    Метод сжатия : С потерями
    Задержка видео : -65 мс.
    Размер потока : 368 Мбайт (3%)
    Заголовок : Original
    Язык : English
    Default : Нет
    Forced : Нет
    Аудио #4
    Идентификатор : 5
    Формат : AC-3
    Формат/Информация : Audio Coding 3
    Расширение режима : CM (complete main)
    Параметр Endianness формата : Big
    Идентификатор кодека : A_AC3
    Продолжительность : 1 ч. 54 м.
    Вид битрейта : Постоянный
    Битрейт : 192 Кбит/сек
    Каналы : 2 канала
    Расположение каналов : Front: L R
    Частота : 48,0 КГц
    Частота кадров : 31,250 кадров/сек (1536 spf)
    Метод сжатия : С потерями
    Задержка видео : -65 мс.
    Размер потока : 158 Мбайт (1%)
    Заголовок : Commentary
    Язык : English
    Default : Нет
    Forced : Нет
    Текст #1
    Идентификатор : 6
    Формат : UTF-8
    Идентификатор кодека : S_TEXT/UTF8
    Идентификатор кодека/Информация : UTF-8 Plain Text
    Продолжительность : 1 ч. 54 м.
    Битрейт : 113 бит/сек
    Count of elements : 1227
    Размер потока : 95,3 Кбайт (0%)
    Заголовок : rus
    Язык : Russian
    Default : Нет
    Forced : Нет
    Текст #2
    Идентификатор : 7
    Формат : UTF-8
    Идентификатор кодека : S_TEXT/UTF8
    Идентификатор кодека/Информация : UTF-8 Plain Text
    Продолжительность : 1 ч. 54 м.
    Битрейт : 75 бит/сек
    Count of elements : 826
    Размер потока : 63,5 Кбайт (0%)
    Заголовок : eng
    Язык : English
    Default : Нет
    Forced : Нет

    Скриншоты


    Скачать .torrent

    Скачать торрент-файл бесплатно и на максимальной скорости!

    Как скачивать? · Что такое торрент? · Рейтинг и ограничения

    !ВНИМАНИЕ!
    Сайт не распространяет и не хранит электронные версии произведений, а занимается лишь лишь предоставлением доступа к создаваемому пользователями каталогу ссылок на торрент-файлы, которые содержат только списки хеш-сумм, убедительная просьба с жалобами обращаться напрямую к пользователю. Файлы для обмена на трекере предоставлены пользователями сайта, и администрация не несёт ответственности за их содержание. Просьба не заливать файлы, защищенные авторскими правами, а также файлы нелегального содержания!


    _________________
    [Профиль] [ЛС]
    Показать сообщения:    
    Ответить на тему

    Текущее время: Сегодня, в 18:22

    Часовой пояс: GMT + 2



    Вы не можете начинать темы
    Вы не можете отвечать на сообщения
    Вы не можете редактировать свои сообщения
    Вы не можете удалять свои сообщения
    Вы не можете голосовать в опросах
    Вы не можете прикреплять файлы к сообщениям
    Вы не можете скачивать файлы