BitTorrentTracker PerecTracker.org
BitTorrentTracker PerecTracker.org
    
Регистрация  ·  Вход
 
 · 
Забыли пароль?

  • Дэдпул / Deadpool (Тим Миллер / Tim Miller) [2016, США, Фантастика, боевик, комедия, приключения, WEB-DLRip-AVC] Dub (iTunes) + Original (Eng) + Subs (Rus, Eng)

    Ответить на тему
     
    Автор Сообщение

    rechyn

    Создавать темы 26-Апр-2016 11:53

           

    [Цитировать]

    Дэдпул / Deadpool
    «Стань свидетелем, как он кончит»
    -Год выхода: 2016
    Выпущено: США, Канада / 20th Century Fox Film Corporation
    Жанр: фантастика, боевик, триллер, приключения
    Продолжительность: 01:48:41
    Перевод: Профессиональный (полное дублирование) + Оригинальная дорожка
    Субтитры: Русские (полные + форсированные), Английские (полные) (.srt*)
    Навигация по главам: Есть (28 глав)-Режиссер:
    Тим Миллер / Tim Miller-В ролях:
    Райан Рейнольдс, Морена Баккарин, Эд Скрейн, ТиДжей Миллер, Джина Карано, Брианна Хилдебранд, Стефан Капичич, Лесли Уггэмс, Джед Риис, Каран Сони, Майкл Беняер, Стайл Дэйн, Кайл Кэсси, Тэйлор Хиксон, Айзи, Наика Туссэн, Рендал Ридер, Айзек С. Синглтон мл., Джастин Шиппелт, Донна Ямамото-О фильме:
    Уэйд Уилсон — наёмник. Будучи побочным продуктом программы вооружённых сил под названием «Оружие X», Уилсон приобрёл невероятную силу, проворство и способность к исцелению. Но страшной ценой: его клеточная структура постоянно меняется, а здравомыслие сомнительно. Всё, чего Уилсон хочет, — это держаться на плаву в социальной выгребной яме. Но течение в ней слишком быстрое.-Релиз групп
    | | IMDB | КиноПоиск | Сэмпл |-Качество: WEB-DLRip-AVC [DEADPOOL_WEB_DL_1080p-BLUEBIRD]
    Формат: MKV
    Видео: 960x400 (2.40:1), 23.976 fps, x264 ~1365 kbps avg, 0.148 bit/pixel
    Аудио #1: 48 kHz, AC3 Dolby Digital, 3/2 (L,C,R,l,r) + LFE ch, ~384 kbps (DUB) - iTunes Russia
    Аудио #2: 48 kHz, AAC-LC, 2/0 (L,R) ch, ~160.00 kbps avg (ENG)-

    Скриншоты

    -

    MediaInfo

    General
    Complete name                            : D:\Deadpool_2016_WEB-DLRip-AVC_by_Dalemake.mkv
    Format                                   : Matroska
    Format version                           : Version 4 / Version 2
    File size                                : 1.45 GiB
    Duration                                 : 1h 48mn
    Overall bit rate                         : 1 905 Kbps
    Encoded date                             : UTC 2016-04-26 03:39:07
    Writing application                      : mkvmerge v7.8.0 ('River Man') 32bit built on Apr  3 2015 12:11:22
    Writing library                          : libebml v1.3.1 + libmatroska v1.4.2
    Video
    ID                                       : 1
    Format                                   : AVC
    Format/Info                              : Advanced Video Codec
    Format profile                           : High@L4.1
    Format settings, CABAC                   : Yes
    Format settings, ReFrames                : 10 frames
    Codec ID                                 : V_MPEG4/ISO/AVC
    Duration                                 : 1h 48mn
    Bit rate                                 : 1 365 Kbps
    Width                                    : 960 pixels
    Height                                   : 400 pixels
    Display aspect ratio                     : 2.40:1
    Frame rate mode                          : Constant
    Frame rate                               : 23.976 (24000/1001) fps
    Color space                              : YUV
    Chroma subsampling                       : 4:2:0
    Bit depth                                : 8 bits
    Scan type                                : Progressive
    Bits/(Pixel*Frame)                       : 0.148
    Stream size                              : 1.04 GiB (72%)
    Writing library                          : x264 core 146 r2538 121396c
    Encoding settings                        : cabac=1 / ref=10 / deblock=1:-1:2 / analyse=0x3:0x113 / me=umh / subme=9 / psy=1 / psy_rd=1.00:0.00 / mixed_ref=1 / me_range=32 / chroma_me=1 / trellis=2 / 8x8dct=1 / cqm=0 / deadzone=21,11 / fast_pskip=0 / chroma_qp_offset=-2 / threads=6 / lookahead_threads=1 / sliced_threads=0 / nr=0 / decimate=0 / interlaced=0 / bluray_compat=0 / constrained_intra=0 / bframes=12 / b_pyramid=2 / b_adapt=2 / b_bias=0 / direct=3 / weightb=1 / open_gop=0 / weightp=2 / keyint=250 / keyint_min=23 / scenecut=40 / intra_refresh=0 / rc_lookahead=60 / rc=2pass / mbtree=0 / bitrate=1365 / ratetol=1.0 / qcomp=0.60 / qpmin=0 / qpmax=69 / qpstep=4 / cplxblur=20.0 / qblur=0.5 / vbv_maxrate=50000 / vbv_bufsize=62500 / nal_hrd=none / filler=0 / ip_ratio=1.32 / pb_ratio=10.00 / aq=0
    Default                                  : Yes
    Forced                                   : No
    Audio #1
    ID                                       : 2
    Format                                   : AC-3
    Format/Info                              : Audio Coding 3
    Mode extension                           : CM (complete main)
    Format settings, Endianness              : Big
    Codec ID                                 : A_AC3
    Duration                                 : 1h 48mn
    Bit rate mode                            : Constant
    Bit rate                                 : 384 Kbps
    Channel(s)                               : 6 channels
    Channel positions                        : Front: L C R, Side: L R, LFE
    Sampling rate                            : 48.0 KHz
    Frame rate                               : 31.250 fps (1536 spf)
    Compression mode                         : Lossy
    Stream size                              : 297 MiB (20%)
    Title                                    : Dub
    Language                                 : Russian
    Default                                  : Yes
    Forced                                   : No
    Audio #2
    ID                                       : 3
    Format                                   : AAC
    Format/Info                              : Advanced Audio Codec
    Format profile                           : LC
    Codec ID                                 : A_AAC
    Duration                                 : 1h 48mn
    Bit rate                                 : 156 Kbps
    Channel(s)                               : 2 channels
    Channel positions                        : Front: L R
    Sampling rate                            : 48.0 KHz
    Frame rate                               : 46.875 fps (1024 spf)
    Compression mode                         : Lossy
    Stream size                              : 121 MiB (8%)
    Title                                    : Original
    Language                                 : English
    Default                                  : No
    Forced                                   : No
    Text #1
    ID                                       : 4
    Format                                   : UTF-8
    Codec ID                                 : S_TEXT/UTF8
    Codec ID/Info                            : UTF-8 Plain Text
    Duration                                 : 47mn 45s
    Bit rate                                 : 0 bps
    Count of elements                        : 2
    Stream size                              : 51.0 Bytes (0%)
    Title                                    : Forced
    Language                                 : Russian
    Default                                  : Yes
    Forced                                   : No
    Text #2
    ID                                       : 5
    Format                                   : UTF-8
    Codec ID                                 : S_TEXT/UTF8
    Codec ID/Info                            : UTF-8 Plain Text
    Duration                                 : 1h 47mn
    Bit rate                                 : 88 bps
    Count of elements                        : 1403
    Stream size                              : 69.5 KiB (0%)
    Title                                    : Full
    Language                                 : Russian
    Default                                  : No
    Forced                                   : No
    Text #3
    ID                                       : 6
    Format                                   : UTF-8
    Codec ID                                 : S_TEXT/UTF8
    Codec ID/Info                            : UTF-8 Plain Text
    Duration                                 : 1h 44mn
    Bit rate                                 : 56 bps
    Count of elements                        : 1383
    Stream size                              : 43.7 KiB (0%)
    Title                                    : Full
    Language                                 : English
    Default                                  : No
    Forced                                   : No
    Menu
    00:00:00.000                : en:1
    00:03:02.724                : en:2
    00:05:51.017                : en:3
    00:09:28.818                : en:4
    00:13:17.087                : en:5
    00:16:46.713                : en:6
    00:20:10.541                : en:7
    00:22:04.404                : en:8
    00:27:07.623                : en:9
    00:31:56.953                : en:10
    00:36:49.704                : en:11
    00:41:04.166                : en:12
    00:44:43.760                : en:13
    00:46:54.599                : en:14
    00:50:08.960                : en:15
    00:53:16.022                : en:16
    00:55:31.032                : en:17
    00:59:05.746                : en:18
    01:03:03.233                : en:19
    01:07:04.432                : en:20
    01:09:13.561                : en:21
    01:12:27.713                : en:22
    01:16:44.386                : en:23
    01:20:41.706                : en:24
    01:25:51.390                : en:25
    01:31:01.783                : en:26
    01:34:44.964                : en:27
    01:39:50.728                : en:28
    -
    Скачать .torrent

    Скачать торрент-файл бесплатно и на максимальной скорости!

    Как скачивать? · Что такое торрент? · Рейтинг и ограничения

    !ВНИМАНИЕ!
    Сайт не распространяет и не хранит электронные версии произведений, а занимается лишь лишь предоставлением доступа к создаваемому пользователями каталогу ссылок на торрент-файлы, которые содержат только списки хеш-сумм, убедительная просьба с жалобами обращаться напрямую к пользователю. Файлы для обмена на трекере предоставлены пользователями сайта, и администрация не несёт ответственности за их содержание. Просьба не заливать файлы, защищенные авторскими правами, а также файлы нелегального содержания!


    _________________
    [Профиль] [ЛС]
    Показать сообщения:    
    Ответить на тему

    Текущее время: Сегодня, в 11:44

    Часовой пояс: GMT + 2



    Вы не можете начинать темы
    Вы не можете отвечать на сообщения
    Вы не можете редактировать свои сообщения
    Вы не можете удалять свои сообщения
    Вы не можете голосовать в опросах
    Вы не можете прикреплять файлы к сообщениям
    Вы не можете скачивать файлы