BitTorrentTracker PerecTracker.org
BitTorrentTracker PerecTracker.org
    
Регистрация  ·  Вход
 
 · 
Забыли пароль?

  • Девушка из Дании / The Danish Girl (Том Хупер / Tom Hooper) [2015, Великобритания, США, Бельгия, Дания, Германия, драма, мелодрама, биография, BDRip-AVC] Dub + Sub (rus, ukr, eng)

    Ответить на тему
     
    Автор Сообщение

    Light

    Создавать темы 26-Апр-2016 11:53

           

    [Цитировать]

    Девушка из Дании
    The Danish Girl
    «Find the courage to be yourself»

    Страна: Великобритания, США, Бельгия, Дания, Германия
    Жанр: драма, мелодрама, биография
    Год выпуска: 2015
    Продолжительность: 01:59:27
    Перевод: Профессиональный (полное дублирование) [Лицензия Blu-ray CEE]
    Субтитры: русские (форсированные, полные), украинские (полные), английские (полные, SDH)
    Оригинальная аудиодорожка: нет
    Режиссер: Том Хупер / Tom Hooper
    В ролях: Эдди Редмэйн, Алисия Викандер, Маттиас Шонартс, Бен Уишоу, Эмбер Хёрд, Себастьян Кох, Эмиральд Феннел, Адриан Шиллер, Генри Петтигрю, Туссе Сильберг, Клаус Буе, Питер Крэг
    Описание:
    Действие происходит в 1920-х годах в Копенгагене. Иллюстратор и художник Герда Вегенер просит своего мужа Эйнара Вегенера попозировать в качестве женской модели. Портреты приобретают популярность и Герда продолжает писать картины со своим мужем в качестве женщины. Эйнару нравится собственная женская внешность и он начинает жить под именем Лили Эльбе. Впоследствии Эльбе становится первым человеком, прошедшим хирургическую коррекцию пола.
    Автор рипа: Stalker oK
    Сэмпл
    Качество видео: BDRip-AVC [HDCLUB / Blu-ray Disc / 1080p]
    Формат видео: MKV
    Видео кодек: AVC
    Аудио кодек: AC3
    Видео: 1297 Кбит/сек, 912x494 (16:9), 23,976 кадр/сек, AVC
    Аудио: русский, 448 Кбит/сек, 48 КГц, 16 бит, 5.1, AC3
    Навигация по главам: есть

    MediaInfo

    Общее
    Уникальный идентификатор : 234158782822389740528351763554505596225 (0xB02957561F9FB857ABB25899A8FC1D41)
    Полное имя : M:\1Rips\The Danish Girl\The.Danish.Girl.2015.BDRip-AVC.Dub.1.45Gb.stalkerok.new-team.mkv
    Формат : Matroska
    Версия формата : Version 4 / Version 2
    Размер файла : 1,46 Гбайт
    Продолжительность : 1 ч. 59 м.
    Общий поток : 1746 Кбит/сек
    Название фильма : The Danish Girl (2015) (New-Team) (Rip by Stalker oK)
    Дата кодирования : UTC 2016-04-25 11:53:19
    Программа кодирования : mkvmerge v8.6.1 ('Flying') 64bit
    Библиотека кодирования : libebml v1.3.3 + libmatroska v1.4.4
    Видео
    Идентификатор : 1
    Формат : AVC
    Формат/Информация : Advanced Video Codec
    Профиль формата : High@L4.1
    Параметр CABAC формата : Да
    Параметр ReFrames формата : 13 кадров
    Идентификатор кодека : V_MPEG4/ISO/AVC
    Продолжительность : 1 ч. 59 м.
    Битрейт : 1297 Кбит/сек
    Ширина : 912 пикселей
    Высота : 494 пикселя
    Соотношение сторон : 1,85:1
    Режим частоты кадров : Постоянный
    Частота кадров : 23,976 (24000/1001) кадра/сек
    Цветовое пространство : YUV
    Субдискретизация насыщенности : 4:2:0
    Битовая глубина : 8 бит
    Тип развёртки : Прогрессивная
    Бит/(Пиксели*Кадры) : 0.120
    Размер потока : 1,08 Гбайт (74%)
    Заголовок : The Danish Girl (2015) (New-Team) (Rip by Stalker oK)
    Библиотека кодирования : x264 core 148 r2665kMod a01e339
    Настройки программы : cabac=1 / ref=13 / deblock=1:-3:-3 / analyse=0x3:0x133 / me=umh / subme=11 / psy=1 / fade_compensate=0.00 / psy_rd=1.00:0.05 / mixed_ref=1 / me_range=48 / chroma_me=1 / trellis=2 / 8x8dct=1 / cqm=0 / deadzone=21,11 / fast_pskip=0 / chroma_qp_offset=-3 / threads=12 / lookahead_threads=3 / sliced_threads=0 / nr=0 / decimate=0 / interlaced=0 / bluray_compat=0 / constrained_intra=0 / fgo=0 / bframes=14 / b_pyramid=2 / b_adapt=2 / b_bias=0 / direct=3 / weightb=1 / open_gop=0 / weightp=2 / keyint=240 / keyint_min=23 / scenecut=40 / intra_refresh=0 / rc_lookahead=60 / rc=2pass / mbtree=0 / bitrate=1297 / ratetol=1.0 / qcomp=0.70 / qpmin=0 / qpmax=69 / qpstep=4 / cplxblur=20.0 / qblur=0.5 / vbv_maxrate=50000 / vbv_bufsize=62500 / nal_hrd=none / filler=0 / ip_ratio=1.40 / pb_ratio=1.30 / aq=3:0.95
    Default : Да
    Forced : Нет
    Аудио
    Идентификатор : 2
    Формат : AC-3
    Формат/Информация : Audio Coding 3
    Расширение режима : CM (complete main)
    Параметр Endianness формата : Big
    Идентификатор кодека : A_AC3
    Продолжительность : 1 ч. 59 м.
    Вид битрейта : Постоянный
    Битрейт : 448 Кбит/сек
    Каналы : 6 каналов
    Расположение каналов : Front: L C R, Side: L R, LFE
    Частота : 48,0 КГц
    Частота кадров : 31,250 кадров/сек (1536 spf)
    Метод сжатия : С потерями
    Размер потока : 383 Мбайт (26%)
    Язык : Russian
    Default : Да
    Forced : Нет
    Текст #1
    Идентификатор : 3
    Формат : UTF-8
    Идентификатор кодека : S_TEXT/UTF8
    Идентификатор кодека/Информация : UTF-8 Plain Text
    Продолжительность : 1 ч. 58 м.
    Битрейт : 0 бит/сек
    Count of elements : 8
    Размер потока : 520 байт (0%)
    Заголовок : Forced
    Язык : Russian
    Default : Да
    Forced : Нет
    Текст #2
    Идентификатор : 4
    Формат : UTF-8
    Идентификатор кодека : S_TEXT/UTF8
    Идентификатор кодека/Информация : UTF-8 Plain Text
    Продолжительность : 1 ч. 58 м.
    Битрейт : 58 бит/сек
    Count of elements : 1158
    Размер потока : 50,7 Кбайт (0%)
    Заголовок : Full
    Язык : Russian
    Default : Нет
    Forced : Нет
    Текст #3
    Идентификатор : 5
    Формат : UTF-8
    Идентификатор кодека : S_TEXT/UTF8
    Идентификатор кодека/Информация : UTF-8 Plain Text
    Продолжительность : 1 ч. 58 м.
    Битрейт : 54 бит/сек
    Count of elements : 1158
    Размер потока : 47,6 Кбайт (0%)
    Заголовок : Full
    Язык : Ukrainian
    Default : Нет
    Forced : Нет
    Текст #4
    Идентификатор : 6
    Формат : UTF-8
    Идентификатор кодека : S_TEXT/UTF8
    Идентификатор кодека/Информация : UTF-8 Plain Text
    Продолжительность : 1 ч. 50 м.
    Битрейт : 37 бит/сек
    Count of elements : 1303
    Размер потока : 30,5 Кбайт (0%)
    Заголовок : English SDH
    Язык : English
    Default : Нет
    Forced : Нет
    Текст #5
    Идентификатор : 7
    Формат : UTF-8
    Идентификатор кодека : S_TEXT/UTF8
    Идентификатор кодека/Информация : UTF-8 Plain Text
    Продолжительность : 1 ч. 50 м.
    Битрейт : 35 бит/сек
    Count of elements : 1204
    Размер потока : 28,6 Кбайт (0%)
    Язык : English
    Default : Нет
    Forced : Нет
    Меню
    00:00:00.000 : en:Chapter 1
    00:06:45.905 : en:Chapter 2
    00:13:42.279 : en:Chapter 3
    00:17:45.898 : en:Chapter 4
    00:21:26.535 : en:Chapter 5
    00:26:36.094 : en:Chapter 6
    00:34:03.624 : en:Chapter 7
    00:40:21.544 : en:Chapter 8
    00:47:31.974 : en:Chapter 9
    00:53:03.889 : en:Chapter 10
    00:58:06.483 : en:Chapter 11
    01:06:50.756 : en:Chapter 12
    01:10:18.464 : en:Chapter 13
    01:15:03.999 : en:Chapter 14
    01:22:16.264 : en:Chapter 15
    01:27:29.077 : en:Chapter 16
    01:33:22.263 : en:Chapter 17
    01:41:36.924 : en:Chapter 18
    01:47:23.228 : en:Chapter 19
    01:52:44.215 : en:Chapter 20

    Скриншоты

    Скачать .torrent

    Скачать торрент-файл бесплатно и на максимальной скорости!

    Как скачивать? · Что такое торрент? · Рейтинг и ограничения

    !ВНИМАНИЕ!
    Сайт не распространяет и не хранит электронные версии произведений, а занимается лишь лишь предоставлением доступа к создаваемому пользователями каталогу ссылок на торрент-файлы, которые содержат только списки хеш-сумм, убедительная просьба с жалобами обращаться напрямую к пользователю. Файлы для обмена на трекере предоставлены пользователями сайта, и администрация не несёт ответственности за их содержание. Просьба не заливать файлы, защищенные авторскими правами, а также файлы нелегального содержания!


    _________________
    [Профиль] [ЛС]
    Показать сообщения:    
    Ответить на тему

    Текущее время: Сегодня, в 18:45

    Часовой пояс: GMT + 2



    Вы не можете начинать темы
    Вы не можете отвечать на сообщения
    Вы не можете редактировать свои сообщения
    Вы не можете удалять свои сообщения
    Вы не можете голосовать в опросах
    Вы не можете прикреплять файлы к сообщениям
    Вы не можете скачивать файлы