BitTorrentTracker PerecTracker.org
BitTorrentTracker PerecTracker.org
    
Регистрация  ·  Вход
 
 · 
Забыли пароль?

  • Доверие / Trust (Дэвид Швиммер / David Schwimmer) [2010, США, триллер, драма, BDRip 720p] MVO + VO + Sub Rus, Eng + Original Eng

    Ответить на тему
     
    Автор Сообщение

    Light

    Создавать темы 25-Апр-2016 23:39

           

    [Цитировать]

    Доверие / Trust
    Год выпуска: 2010
    Продолжительность: 01:45:36
    Страна: США
    Слоган: «Никогда не знаешь, кто сидит по ту сторону монитора…»
    Жанр: триллер, драма
    Перевод 1: Профессиональный (многоголосый, закадровый) R5
    Перевод 2: Одноголосый закадровый ROLLINGHEAD
    Оригинальная аудиодорожка: английский
    Субтитры: English, Russian
    Режиссер: Дэвид Швиммер / David Schwimmer--В ролях: Клайв Оуэн, Кэтрин Кинер, Лиана Либерато, Виола Дэвис, Ноа Эммерик, Джейсон Кларк, Крис Генри Коффи, Брэндон Молале, Джордан Тровиллион, Николь Скотт...--Описание: Жизнь Кэмеронов удалась - подрастают чудесные дочки, карьера отца семейства идет в гору, дом оснащен по последнему слову техники. Они привыкли спокойно спать по ночам, потому что уверены - беде не проникнуть в их крепость. И когда их 14-летняя дочь Энни знакомится через Интернет с юношей по имени Чарли, они не придают особого значения возникающей между ними влюбленности.
    Иллюзии виртуального мира рассеиваются, когда в реальности 16-летний Чарли оказывается 40-летним серийным маньяком. Изнасилование становится испытанием для всей семьи. Отец Энни хочет отомстить за дочь, но неожиданного для себя обнаруживает, что он сам не намного лучше маньяка…--Доп. информация: | IMDB | КиноПоиск | Сэмпл |--Качество: BDRip 720p
    Формат: MKV
    Видео: AVC, 1280x534, (2,40:1), 5280 kbps, 23.976 fps
    Аудио 1: AC3 Dolby Digital, 3/2 (L,C,R,l,r) + LFE ch, 48 kHz, 448 kbps | MVO
    Аудио 2: AC3 Dolby Digital, 2/0 (L,R) ch, 48 kHz, 192 kbps | VO
    Аудио 3: AC3 Dolby Digital, 3/2 (L,C,R,l,r) + LFE ch, 48 kHz, 640 kbps | Original
    Формат субтитров:softsub (SRT)

    MediaInfo

    General
    Unique ID : 198018276890278290190319791471530618075 (0x94F8EED2870B70AFAD44DF8EFA402CDB)
    Complete name : Trust (2010) 720p.mkv
    Format : Matroska
    Format version : Version 4 / Version 2
    File size : 4.84 GiB
    Duration : 1h 45mn
    Overall bit rate : 6 558 Kbps
    Movie name : Доверие / Trust (2010)
    Encoded date : UTC 2016-04-21 10:16:00
    Writing application : mkvmerge v8.1.0 ('Psychedelic Postcard') 64bit
    Writing library : libebml v1.3.1 + libmatroska v1.4.2
    Cover : Yes
    Attachments : cover.png
    Video
    ID : 1
    Format : AVC
    Format/Info : Advanced Video Codec
    Format profile : High@L4.1
    Format settings, CABAC : Yes
    Format settings, ReFrames : 11 frames
    Codec ID : V_MPEG4/ISO/AVC
    Duration : 1h 45mn
    Bit rate : 5 280 Kbps
    Width : 1 280 pixels
    Height : 534 pixels
    Display aspect ratio : 2.40:1
    Frame rate mode : Constant
    Frame rate : 23.976 (24000/1001) fps
    Color space : YUV
    Chroma subsampling : 4:2:0
    Bit depth : 8 bits
    Scan type : Progressive
    Bits/(Pixel*Frame) : 0.322
    Stream size : 3.89 GiB (80%)
    Title : Trust (2010)
    Writing library : x264 core 116 r2057 0ba8a9c
    Encoding settings : cabac=1 / ref=11 / deblock=1:-3:-3 / analyse=0x3:0x133 / me=umh / subme=11 / psy=1 / psy_rd=1.10:0.00 / mixed_ref=1 / me_range=64 / chroma_me=1 / trellis=2 / 8x8dct=1 / cqm=0 / deadzone=21,11 / fast_pskip=0 / chroma_qp_offset=-2 / threads=12 / sliced_threads=0 / nr=0 / decimate=0 / interlaced=0 / bluray_compat=0 / constrained_intra=0 / bframes=12 / b_pyramid=2 / b_adapt=2 / b_bias=0 / direct=1 / weightb=1 / open_gop=0 / weightp=2 / keyint=250 / keyint_min=23 / scenecut=40 / intra_refresh=0 / rc_lookahead=40 / rc=2pass / mbtree=0 / bitrate=5280 / ratetol=1.0 / qcomp=0.70 / qpmin=0 / qpmax=69 / qpstep=4 / cplxblur=20.0 / qblur=0.5 / vbv_maxrate=50000 / vbv_bufsize=62500 / nal_hrd=none / ip_ratio=1.40 / pb_ratio=1.30 / aq=1:0.80
    Language : English
    Default : Yes
    Forced : No
    Color range : Limited
    Color primaries : BT.709
    Transfer characteristics : BT.709
    Matrix coefficients : BT.709
    Audio #1
    ID : 2
    Format : AC-3
    Format/Info : Audio Coding 3
    Mode extension : CM (complete main)
    Format settings, Endianness : Big
    Codec ID : A_AC3
    Duration : 1h 45mn
    Bit rate mode : Constant
    Bit rate : 448 Kbps
    Channel(s) : 6 channels
    Channel positions : Front: L C R, Side: L R, LFE
    Sampling rate : 48.0 KHz
    Frame rate : 31.250 fps (1536 spf)
    Compression mode : Lossy
    Stream size : 338 MiB (7%)
    Title : MVO (R5)
    Language : Russian
    Default : Yes
    Forced : No
    Audio #2
    ID : 3
    Format : AC-3
    Format/Info : Audio Coding 3
    Mode extension : CM (complete main)
    Format settings, Endianness : Big
    Codec ID : A_AC3
    Duration : 1h 45mn
    Bit rate mode : Constant
    Bit rate : 192 Kbps
    Channel(s) : 2 channels
    Channel positions : Front: L R
    Sampling rate : 48.0 KHz
    Frame rate : 31.250 fps (1536 spf)
    Compression mode : Lossy
    Stream size : 145 MiB (3%)
    Title : VO (ROLLINGHEAD)
    Language : Russian
    Default : No
    Forced : No
    Audio #3
    ID : 4
    Format : AC-3
    Format/Info : Audio Coding 3
    Mode extension : CM (complete main)
    Format settings, Endianness : Big
    Codec ID : A_AC3
    Duration : 1h 45mn
    Bit rate mode : Constant
    Bit rate : 640 Kbps
    Channel(s) : 6 channels
    Channel positions : Front: L C R, Side: L R, LFE
    Sampling rate : 48.0 KHz
    Frame rate : 31.250 fps (1536 spf)
    Compression mode : Lossy
    Stream size : 483 MiB (10%)
    Title : Original
    Language : English
    Default : No
    Forced : No
    Text #1
    ID : 5
    Format : UTF-8
    Codec ID : S_TEXT/UTF8
    Codec ID/Info : UTF-8 Plain Text
    Duration : 1h 39mn
    Bit rate : 106 bps
    Count of elements : 1499
    Stream size : 77.9 KiB (0%)
    Title : Rus coloured full
    Language : Russian
    Default : No
    Forced : No
    Text #2
    ID : 6
    Format : UTF-8
    Codec ID : S_TEXT/UTF8
    Codec ID/Info : UTF-8 Plain Text
    Duration : 1h 39mn
    Bit rate : 104 bps
    Count of elements : 1499
    Stream size : 76.1 KiB (0%)
    Title : Rus full
    Language : Russian
    Default : No
    Forced : No
    Text #3
    ID : 7
    Format : UTF-8
    Codec ID : S_TEXT/UTF8
    Codec ID/Info : UTF-8 Plain Text
    Duration : 1h 39mn
    Bit rate : 111 bps
    Count of elements : 1541
    Stream size : 81.6 KiB (0%)
    Title : Rus SDH coloured full
    Language : Russian
    Default : No
    Forced : No
    Text #4
    ID : 8
    Format : UTF-8
    Codec ID : S_TEXT/UTF8
    Codec ID/Info : UTF-8 Plain Text
    Duration : 1h 39mn
    Bit rate : 109 bps
    Count of elements : 1541
    Stream size : 79.9 KiB (0%)
    Title : Rus SDH full
    Language : Russian
    Default : No
    Forced : No
    Text #5
    ID : 9
    Format : UTF-8
    Codec ID : S_TEXT/UTF8
    Codec ID/Info : UTF-8 Plain Text
    Duration : 1h 38mn
    Bit rate : 50 bps
    Count of elements : 989
    Stream size : 36.8 KiB (0%)
    Title : English full
    Language : English
    Default : No
    Forced : No
    Text #6
    ID : 10
    Format : UTF-8
    Codec ID : S_TEXT/UTF8
    Codec ID/Info : UTF-8 Plain Text
    Duration : 1h 38mn
    Bit rate : 66 bps
    Count of elements : 1604
    Stream size : 48.0 KiB (0%)
    Title : English SDH full
    Language : English
    Default : No
    Forced : No
    Menu
    00:00:00.000 : en:Chapter 1
    00:13:36.899 : en:Chapter 2
    00:19:27.333 : en:Chapter 3
    00:27:07.668 : en:Chapter 4
    00:36:31.981 : en:Chapter 5
    00:47:39.398 : en:Chapter 6
    00:55:07.846 : en:Chapter 7
    01:03:27.303 : en:Chapter 8
    01:15:35.406 : en:Chapter 9
    01:21:34.890 : en:Chapter 10
    01:27:26.950 : en:Chapter 11
    01:38:07.840 : en:Chapter 12

    Скриншоты

    Скачать .torrent

    Скачать торрент-файл бесплатно и на максимальной скорости!

    Как скачивать? · Что такое торрент? · Рейтинг и ограничения

    !ВНИМАНИЕ!
    Сайт не распространяет и не хранит электронные версии произведений, а занимается лишь лишь предоставлением доступа к создаваемому пользователями каталогу ссылок на торрент-файлы, которые содержат только списки хеш-сумм, убедительная просьба с жалобами обращаться напрямую к пользователю. Файлы для обмена на трекере предоставлены пользователями сайта, и администрация не несёт ответственности за их содержание. Просьба не заливать файлы, защищенные авторскими правами, а также файлы нелегального содержания!


    _________________
    [Профиль] [ЛС]
    Показать сообщения:    
    Ответить на тему

    Текущее время: Сегодня, в 01:55

    Часовой пояс: GMT + 2



    Вы не можете начинать темы
    Вы не можете отвечать на сообщения
    Вы не можете редактировать свои сообщения
    Вы не можете удалять свои сообщения
    Вы не можете голосовать в опросах
    Вы не можете прикреплять файлы к сообщениям
    Вы не можете скачивать файлы