BitTorrentTracker PerecTracker.org
BitTorrentTracker PerecTracker.org
    
Регистрация  ·  Вход
 
 · 
Забыли пароль?

  • Спонтанное возгорание / Spontaneous Combustion (Тоуб Хупер / Tobe Hooper) [1990, США, ужасы, фантастика, триллер, BDRemux 1080p] 2x AVO (Сергей Визгунов, Андрей Гаврилов) + Original Eng

    Ответить на тему
     
    Автор Сообщение

    Light

    Создавать темы 25-Апр-2016 19:30

           

    [Цитировать]

    Спонтанное возгорание / Spontaneous Combustion«The cleanest kill on earth»Страна: США
    Жанр: ужасы, фантастика, триллер
    Год выпуска: 1990
    Продолжительность: 01:36:52
    Перевод 1: Авторский (одноголосый закадровый) Сергей Визгунов
    Перевод 2: Авторский (одноголосый закадровый) Андрей Гаврилов
    Cубтитры: нет
    Оригинальная аудиодорожка: английский
    -
    Режиссер: Тоуб Хупер / Tobe Hooper
    В ролях: Брэд Дуриф, Синтия Бейн, Джон Сайфер, Уильям Принц, Мелинда Диллон, Дей Янг, Теган Уэст, Майкл Кис Холл, Дейл Дай, Дик Баткас
    -
    Описание: Он наделен необычным и таинственным даром. Никто не может объяснить его происхождение. Ясно одно: Сэм Креймер - человек-феномен, вынужденный постоянно находиться под наблюдением ученых. И так продолжается до тех пор, пока люди, оказывающиеся на пути Сэма, не начинают один за другим погибать самым ужасным образом.

    Тип релиза: BDRemux 1080p
    Контейнер: MKV
    Видео: MPEG-4 AVC / NTSC 16:9 / 1920x1080 (1,78:1) / 27616 kbps / 23,976 fps / 0.555 bit/pixel / High@L4.1
    Аудио 1: Russian / AC3 / 2.0 Ch / 48 kHz / 192 kbps / 16 bit / AVO / Сергей Визгунов
    Аудио 2: Russian / AC3 / 2.0 Ch / 48 kHz / 192 kbps / 16 bit / AVO / Андрей Гаврилов
    Аудио 3: English / DTS-HD Master Audio / 2.0 Ch / 48 kHz / 1792 kbps / 24-bit (DTS Core: 2.0 Ch / 48 kHz / 1509 kbps / 24-bit) / Original
    Навигация по главам: есть

    MediaInfo

    Общее
    Уникальный идентификатор : 237790794171715339742506976671778096251 (0xB2E4D7524BDE6AF68DA2EDEBEB76447B)
    Полное имя : N:\BDRemux 1080p\Spontaneous Combustion.1990.BDRemux.1080p.mkv
    Формат : Matroska
    Версия формата : Version 4 / Version 2
    Размер файла : 20,1 Гбайт
    Продолжительность : 1 ч. 36 м.
    Режим общего битрейта : Переменный
    Общий поток : 29,8 Мбит/сек
    Дата кодирования : UTC 2016-04-23 01:06:58
    Программа кодирования : mkvmerge v9.0.1 ('Obstacles') 64bit
    Библиотека кодирования : libebml v1.3.3 + libmatroska v1.4.4
    Видео
    Идентификатор : 1
    Формат : AVC
    Формат/Информация : Advanced Video Codec
    Профиль формата : High@L4.1
    Параметр CABAC формата : Да
    Параметр ReFrames формата : 3 кадра
    Параметр GOP формата : M=3, N=12
    Идентификатор кодека : V_MPEG4/ISO/AVC
    Продолжительность : 1 ч. 36 м.
    Вид битрейта : Переменный
    Битрейт : 27,6 Мбит/сек
    Максимальный битрейт : 35,0 Мбит/сек
    Ширина : 1920 пикселей
    Высота : 1080 пикселей
    Соотношение сторон : 16:9
    Режим частоты кадров : Постоянный
    Частота кадров : 23,976 (24000/1001) кадра/сек
    Стандарт вещания : NTSC
    Цветовое пространство : YUV
    Субдискретизация насыщенности : 4:2:0
    Битовая глубина : 8 бит
    Тип развёртки : Прогрессивная
    Бит/(Пиксели*Кадры) : 0.555
    Размер потока : 18,7 Гбайт (93%)
    Язык : English
    Default : Да
    Forced : Нет
    Цветовой диапазон : Limited
    Основные цвета : BT.709
    Характеристики трансфера : BT.709
    Коэффициенты матрицы : BT.709
    Аудио #1
    Идентификатор : 2
    Формат : AC-3
    Формат/Информация : Audio Coding 3
    Расширение режима : CM (complete main)
    Параметр Endianness формата : Big
    Идентификатор кодека : A_AC3
    Продолжительность : 1 ч. 36 м.
    Вид битрейта : Постоянный
    Битрейт : 192 Кбит/сек
    Каналы : 2 канала
    Расположение каналов : Front: L R
    Частота : 48,0 КГц
    Частота кадров : 31,250 кадров/сек (1536 spf)
    Метод сжатия : С потерями
    Размер потока : 133 Мбайт (1%)
    Заголовок : AVO / Сергей Визгунов
    Язык : Russian
    Default : Да
    Forced : Нет
    Аудио #2
    Идентификатор : 3
    Формат : AC-3
    Формат/Информация : Audio Coding 3
    Расширение режима : CM (complete main)
    Параметр Endianness формата : Big
    Идентификатор кодека : A_AC3
    Продолжительность : 1 ч. 36 м.
    Вид битрейта : Постоянный
    Битрейт : 192 Кбит/сек
    Каналы : 2 канала
    Расположение каналов : Front: L R
    Частота : 48,0 КГц
    Частота кадров : 31,250 кадров/сек (1536 spf)
    Метод сжатия : С потерями
    Размер потока : 133 Мбайт (1%)
    Заголовок : AVO / Андрей Гаврилов
    Язык : Russian
    Default : Нет
    Forced : Нет
    Аудио #3
    Идентификатор : 4
    Формат : DTS
    Формат/Информация : Digital Theater Systems
    Профиль формата : MA / Core
    Режим : 16
    Параметр Endianness формата : Big
    Идентификатор кодека : A_DTS
    Продолжительность : 1 ч. 36 м.
    Вид битрейта : Переменный / Постоянный
    Битрейт : 1792 Кбит/сек / 1509 Кбит/сек
    Каналы : 2 канала
    Расположение каналов : Front: L R
    Частота : 48,0 КГц
    Частота кадров : 93,750 кадра/сек (512 spf)
    Битовая глубина : 24 бит
    Метод сжатия : Без потерь / Lossy
    Размер потока : 1,21 Гбайт (6%)
    Заголовок : Original
    Язык : English
    Default : Нет
    Forced : Нет
    Меню
    00:00:00.000 : en:00:00:00.000
    00:09:25.231 : en:00:09:25.231
    00:19:51.857 : en:00:19:51.857
    00:30:00.215 : en:00:30:00.215
    00:39:49.887 : en:00:39:49.887
    00:50:08.047 : en:00:50:08.047
    00:59:31.234 : en:00:59:31.234
    01:08:48.458 : en:01:08:48.458
    01:20:14.018 : en:01:20:14.018
    01:29:35.412 : en:01:29:35.412
    01:33:49.624 : en:01:33:49.624

    Скриншоты

    Скачать .torrent

    Скачать торрент-файл бесплатно и на максимальной скорости!

    Как скачивать? · Что такое торрент? · Рейтинг и ограничения

    !ВНИМАНИЕ!
    Сайт не распространяет и не хранит электронные версии произведений, а занимается лишь лишь предоставлением доступа к создаваемому пользователями каталогу ссылок на торрент-файлы, которые содержат только списки хеш-сумм, убедительная просьба с жалобами обращаться напрямую к пользователю. Файлы для обмена на трекере предоставлены пользователями сайта, и администрация не несёт ответственности за их содержание. Просьба не заливать файлы, защищенные авторскими правами, а также файлы нелегального содержания!


    _________________
    [Профиль] [ЛС]
    Показать сообщения:    
    Ответить на тему

    Текущее время: Сегодня, в 22:09

    Часовой пояс: GMT + 2



    Вы не можете начинать темы
    Вы не можете отвечать на сообщения
    Вы не можете редактировать свои сообщения
    Вы не можете удалять свои сообщения
    Вы не можете голосовать в опросах
    Вы не можете прикреплять файлы к сообщениям
    Вы не можете скачивать файлы