BitTorrentTracker PerecTracker.org
BitTorrentTracker PerecTracker.org
    
Регистрация  ·  Вход
 
 · 
Забыли пароль?

  • Будь моим сыном / Tu seras mon fils (Жиль Легран / Gilles Legrand) [2011, Франция, драма, BDRip 720p] Original Fre + Sub Rus

    Ответить на тему
     
    Автор Сообщение

    Light

    Создавать темы 25-Апр-2016 19:30

           

    [Цитировать]

    Будь моим сыном / Tu seras mon fils
    Страна: Франция
    Студия: Universal Pictures International France
    Жанр: Драма
    Год выпуска: 2011
    Продолжительность: 1:41:26
    Перевод: Субтитры (Playball)
    Cубтитры: русские
    Оригинальная аудиодорожка: французский
    Режиссер: Жиль Легран / Gilles Legrand
    В ролях: Нильс Ареструп, Лоран Дойч, Патрик Шене, Энн Маривин, Николя Бриде и др.
    Описание: Семью не выбирают. Поль де Марсёл - владелец престижной винодельни в Сент-Эмильоне. Ему, как может, помогает собственный сын Мартен. Однако Поль, требовательный и страстный винодел, вовсе не одобряет идею того, чтобы тот в один прекрасный день стал его преемником. Прибытие сына менеджера - Филиппа полностью меняет жизнь поместья. В нем Поль видит своего идеального наследника, о котором столько мечтал. Начинается сложная игра с четырьмя участниками: двумя детьми и двумя родителями, в котором по меньшей мере одному из них совершенно нечего терять.
    Номинация Сезар-2012: Самый многообещающий актер (Николя Бриде)
    Сэмпл: https://www.sendspace.com/file/yanl82
    Тип релиза: BDRip 720p
    Контейнер: MKV
    Видео: V_MPEG4/ISO/AVC, 1280*536 (2,40:1), 4650 Kbps, 24.000 fps.
    Аудио: DTS, 6 channels, 48.0 KHz, 1 509 Kbps
    Формат субтитров: softsub (SRT)

    Пример субтитров

    1
    00:02:19,875 --> 00:02:21,290
    Мсье, прошу вас...
    2
    00:02:49,875 --> 00:02:51,832
    А гроб дубовый?
    3
    00:02:52,708 --> 00:02:55,540
    Французский дуб.
    Из Тронсэ.
    4
    00:02:56,000 --> 00:02:57,999
    То есть, теперь
    он будет вместе с...
    5
    00:02:58,833 --> 00:03:00,332
    Разумеется.
    6
    00:03:01,166 --> 00:03:06,040
    Теперь отделить
    золу от праха сложновато.
    7
    00:03:08,083 --> 00:03:10,999
    Он не любил древесные ароматы.
    8
    00:03:12,583 --> 00:03:14,457
    Боюсь, ему бы
    это не понравилось.
    9
    00:03:14,625 --> 00:03:16,249
    И там, и там - углерод.
    10
    00:03:16,625 --> 00:03:18,290
    Один углерод.
    11
    00:03:53,125 --> 00:03:57,540
    Clos de l'Abbe
    из Сент-Эмильона.
    12
    00:03:58,458 --> 00:03:59,999
    Что за чудо.
    13
    00:04:02,041 --> 00:04:02,999
    Прекрасно.
    14
    00:04:03,708 --> 00:04:06,207
    Точно - ягоды.
    И, возможно, пион?
    15
    00:04:07,791 --> 00:04:09,249
    Шиповник.
    16
    00:04:10,541 --> 00:04:14,540
    Вино ведает нам рассказ
    не меньший, чем аромат духов.
    17
    00:04:16,625 --> 00:04:20,457
    В ваших я ощущаю
    туберозы,
    18
    00:04:20,833 --> 00:04:22,582
    ваниль.
    19
    00:04:23,458 --> 00:04:26,749
    Что-то цветочное и пудровое.
    Должно быть, Guerlain.
    20
    00:04:27,291 --> 00:04:28,999
    Полагаю, L'Heure Bleue.
    21
    00:04:30,166 --> 00:04:32,082
    Попробуйте,
    сделайте одолжение.
    22
    00:04:44,875 --> 00:04:46,415
    Это слишком.
    23
    00:04:46,916 --> 00:04:49,915
    У вашего Abbe
    слишком долгое послевкусие.
    24
    00:04:51,000 --> 00:04:53,832
    Попробуете вино для причастия?
    25
    00:04:54,000 --> 00:04:55,957
    Пресловутый Chardonnay.
    26
    00:04:56,958 --> 00:05:00,915
    Которое положено пить,
    преклонив колени и с непокрытой головой.
    27
    00:05:01,083 --> 00:05:04,124
    - Оно из Сент-Эмильона? Надо же.
    - Белая почва, белый виноград.

    MediaInfo

    General
    Unique ID : 244166844031223395593346285312989265011 (0xB7B0D2D9B806F000B6DDA583E62CFC73)
    Complete name : D:\КИНО\1Tracker\Tu.Seras.Mon.Fils.2011.mkv
    Format : Matroska
    Format version : Version 2
    File size : 4.36 GiB
    Duration : 1h 41mn
    Overall bit rate : 6 159 Kbps
    Encoded date : UTC 2016-04-24 07:35:49
    Writing application : mkvmerge v5.8.0 ('No Sleep / Pillow') built on Sep 2 2012 15:37:04
    Writing library : libebml v1.2.3 + libmatroska v1.3.0
    Video
    ID : 2
    Format : AVC
    Format/Info : Advanced Video Codec
    Format profile : High@L4.1
    Format settings, CABAC : Yes
    Format settings, ReFrames : 5 frames
    Codec ID : V_MPEG4/ISO/AVC
    Duration : 1h 41mn
    Bit rate : 4 650 Kbps
    Width : 1 280 pixels
    Height : 536 pixels
    Display aspect ratio : 2.40:1
    Frame rate mode : Constant
    Frame rate : 24.000 fps
    Color space : YUV
    Chroma subsampling : 4:2:0
    Bit depth : 8 bits
    Scan type : Progressive
    Bits/(Pixel*Frame) : 0.282
    Stream size : 3.21 GiB (74%)
    Writing library : x264 core 119 r2106 07efeb4
    Encoding settings : cabac=1 / ref=5 / deblock=1:0:0 / analyse=0x3:0x113 / me=umh / subme=7 / psy=1 / psy_rd=1.00:0.15 / mixed_ref=1 / me_range=16 / chroma_me=1 / trellis=1 / 8x8dct=1 / cqm=0 / deadzone=21,11 / fast_pskip=0 / chroma_qp_offset=-3 / threads=12 / sliced_threads=0 / nr=0 / decimate=1 / interlaced=0 / bluray_compat=0 / constrained_intra=0 / bframes=3 / b_pyramid=2 / b_adapt=1 / b_bias=0 / direct=1 / weightb=1 / open_gop=0 / weightp=2 / keyint=250 / keyint_min=24 / scenecut=40 / intra_refresh=0 / rc_lookahead=40 / rc=2pass / mbtree=1 / bitrate=4650 / ratetol=1.0 / qcomp=0.60 / qpmin=0 / qpmax=69 / qpstep=4 / cplxblur=20.0 / qblur=0.5 / ip_ratio=1.40 / aq=1:1.00
    Language : English
    Default : Yes
    Forced : No
    Audio
    ID : 3
    Format : DTS
    Format/Info : Digital Theater Systems
    Mode : 16
    Format settings, Endianness : Big
    Codec ID : A_DTS
    Duration : 1h 41mn
    Bit rate mode : Constant
    Bit rate : 1 509 Kbps
    Channel(s) : 6 channels
    Channel positions : Front: L C R, Side: L R, LFE
    Sampling rate : 48.0 KHz
    Bit depth : 24 bits
    Compression mode : Lossy
    Stream size : 1.07 GiB (24%)
    Default : Yes
    Forced : No
    Text
    ID : 1
    Format : UTF-8
    Codec ID : S_TEXT/UTF8
    Codec ID/Info : UTF-8 Plain Text
    Default : Yes
    Forced : No

    Скриншоты

    Скачать .torrent

    Скачать торрент-файл бесплатно и на максимальной скорости!

    Как скачивать? · Что такое торрент? · Рейтинг и ограничения

    !ВНИМАНИЕ!
    Сайт не распространяет и не хранит электронные версии произведений, а занимается лишь лишь предоставлением доступа к создаваемому пользователями каталогу ссылок на торрент-файлы, которые содержат только списки хеш-сумм, убедительная просьба с жалобами обращаться напрямую к пользователю. Файлы для обмена на трекере предоставлены пользователями сайта, и администрация не несёт ответственности за их содержание. Просьба не заливать файлы, защищенные авторскими правами, а также файлы нелегального содержания!


    _________________
    [Профиль] [ЛС]
    Показать сообщения:    
    Ответить на тему

    Текущее время: Сегодня, в 00:10

    Часовой пояс: GMT + 2



    Вы не можете начинать темы
    Вы не можете отвечать на сообщения
    Вы не можете редактировать свои сообщения
    Вы не можете удалять свои сообщения
    Вы не можете голосовать в опросах
    Вы не можете прикреплять файлы к сообщениям
    Вы не можете скачивать файлы