BitTorrentTracker PerecTracker.org
BitTorrentTracker PerecTracker.org
    
Регистрация  ·  Вход
 
 · 
Забыли пароль?

  • Анаконда 2: Охота за проклятой орхидеей / Anacondas: The Hunt for the Blood Orchid (Дуайт Х. Литтл / Dwight H. Little) [2004, США, триллер, приключения, HDTV 1080p] [Open Matte] Dub + MVOx2 + DVOx2 + AVO + Sub Rus

    Ответить на тему
     
    Автор Сообщение

    Light

    Создавать темы 25-Апр-2016 19:29

           

    [Цитировать]

    Анаконда 2: Охота за проклятой орхидеей / Anacondas: The Hunt for the Blood Orchid / Open Matte
    Страна: США
    Жанр: триллер, приключения
    Год выпуска: 2004
    Продолжительность: 01:32:40
    Перевод 1: Профессиональный (дублированный)
    Перевод 2: Профессиональный (многоголосый закадровый) Первый канал (Со вставками перевода СТС)
    Перевод 3: Профессиональный (многоголосый закадровый) СТС
    Перевод 4: Профессиональный (двухголосый закадровый)
    Перевод 5: Профессиональный (двухголосый закадровый) VHS
    Перевод 6: Авторский (одноголосый закадровый) Гаврилов
    Cубтитры: русские
    Оригинальная аудиодорожка: английский
    Режиссер: Дуайт Х. Литтл / Dwight H. Little
    В ролях: Джонни Месснер, КаДи Стрикленд, Мэттью Мэрсден, Николас Гонзалез, Юджин Бирд, Карл Йун, Салли Ричардсон, Моррис Честнат, Энди Андерсон, Николас Хоуп
    Описание: Научная экспедиция, спонсируемая фармацевтической компанией, отправляется на остров Борнео на поиски загадочной Черной Орхидеи. По преданиям, этот цветок обладает невероятными качествами: он продлевает жизнь и возвращает молодость. Слухи оказываются правдой: цветок существует, придает силы и продлевает жизнь обитателям джунглей… в том числе и анакондам. Эти исчадия ада стали невероятно быстрыми, дьявольски изощренными и достигли невероятных размеров. Теперь попавшим врасплох путешественникам предстоит найти выход из лабиринта тропических лесов и избежать встреч с их гигантскими обитателями…
    Доп. информация: Наполнение кадра отличается от http://perectracker.org/http://perectracker.org/viewtopic.php?t=2218739 http://screenshotcomparison.com/comparison/170567
    Сэмпл: http://multi-up.com/1098903
    Тип релиза: HDTV 1080p
    Контейнер: MKV
    Видео: AVC, 1920x1080 (16:9), 25.000 fps, 4 500 Kbps (0.068 bit/pixel)
    Аудио 1: Russian: AC-3, 48.0 KHz, 6 ch, 448 Kbps, CBR (Russian) - dub
    Аудио 2: Russian: AC-3, 48.0 KHz, 2 ch, 192 Kbps, CBR (Russian) - mvo 1 канал
    Аудио 3: Russian: AC-3, 48.0 KHz, 2 ch, 192 Kbps, CBR (Russian) - mvo стс
    Аудио 4: Russian: AC-3, 48.0 KHz, 2 ch, 192 Kbps, CBR (Russian) - dvo
    Аудио 5: Russian: AC-3, 48.0 KHz, 2 ch, 192 Kbps, CBR (Russian) - dvo vhs
    Аудио 6: Russian: AC-3, 48.0 KHz, 2 ch, 192 Kbps, CBR (Russian) - avo Гаврилов
    Аудио 7: English: AC-3, 48.0 KHz, 6 ch, 448 Kbps, CBR (Russian)
    Формат субтитров: softsub (SRT)

    MediaInfo

    Общее
    Уникальный идентификатор : 241663757630161884109450400721975346528 (0xB5CEBF29A6DFB912923B80CF76FF8560)
    Полное имя : M:\Анаконда 2. Охота за проклятой орхидеей.mkv
    Формат : Matroska
    Версия формата : Version 2
    Размер файла : 3,56 Гбайт
    Продолжительность : 1 ч. 32 м.
    Общий поток : 5499 Кбит/сек
    Название фильма : Анаконда 2: Охота за проклятой орхидеей / Anacondas: The Hunt for the Blood Orchid (2004)
    Дата кодирования : UTC 2016-04-24 09:16:24
    Программа кодирования : mkvmerge v8.2.0 ('World of Adventure') 64bit
    Библиотека кодирования : libebml v1.3.1 + libmatroska v1.4.2
    Видео
    Идентификатор : 1
    Формат : AVC
    Формат/Информация : Advanced Video Codec
    Профиль формата : High@L4
    Параметр CABAC формата : Да
    Параметр ReFrames формата : 4 кадра
    Идентификатор кодека : V_MPEG4/ISO/AVC
    Продолжительность : 1 ч. 32 м.
    Вид битрейта : Постоянный
    Битрейт : 3533 Кбит/сек
    Номинальный битрейт : 4500 Кбит/сек
    Ширина : 1920 пикселей
    Высота : 1080 пикселей
    Соотношение сторон : 16:9
    Режим частоты кадров : Постоянный
    Частота кадров : 25,000 кадров/сек
    Цветовое пространство : YUV
    Субдискретизация насыщенности : 4:2:0
    Битовая глубина : 8 бит
    Тип развёртки : Прогрессивная
    Бит/(Пиксели*Кадры) : 0.068
    Размер потока : 2,29 Гбайт (64%)
    Язык : English
    Default : Да
    Forced : Нет
    Аудио #1
    Идентификатор : 2
    Формат : AC-3
    Формат/Информация : Audio Coding 3
    Расширение режима : CM (complete main)
    Параметр Endianness формата : Big
    Идентификатор кодека : A_AC3
    Продолжительность : 1 ч. 32 м.
    Вид битрейта : Постоянный
    Битрейт : 448 Кбит/сек
    Каналы : 6 каналов
    Расположение каналов : Front: L C R, Side: L R, LFE
    Частота : 48,0 КГц
    Частота кадров : 31,250 кадров/сек (1536 spf)
    Метод сжатия : С потерями
    Размер потока : 297 Мбайт (8%)
    Заголовок : Профессиональный (полное дублирование)
    Язык : Russian
    Default : Да
    Forced : Нет
    Аудио #2
    Идентификатор : 3
    Формат : AC-3
    Формат/Информация : Audio Coding 3
    Расширение режима : CM (complete main)
    Параметр Endianness формата : Big
    Идентификатор кодека : A_AC3
    Продолжительность : 1 ч. 32 м.
    Вид битрейта : Постоянный
    Битрейт : 192 Кбит/сек
    Каналы : 2 канала
    Расположение каналов : Front: L R
    Частота : 48,0 КГц
    Частота кадров : 31,250 кадров/сек (1536 spf)
    Метод сжатия : С потерями
    Задержка видео : -16 мс.
    Размер потока : 127 Мбайт (3%)
    Заголовок : Профессиональный (многоголосый закадровый) 1 канал
    Язык : Russian
    Default : Нет
    Forced : Нет
    Аудио #3
    Идентификатор : 4
    Формат : AC-3
    Формат/Информация : Audio Coding 3
    Расширение режима : CM (complete main)
    Параметр Endianness формата : Big
    Идентификатор кодека : A_AC3
    Продолжительность : 1 ч. 32 м.
    Вид битрейта : Постоянный
    Битрейт : 192 Кбит/сек
    Каналы : 2 канала
    Расположение каналов : Front: L R
    Частота : 48,0 КГц
    Частота кадров : 31,250 кадров/сек (1536 spf)
    Метод сжатия : С потерями
    Задержка видео : -16 мс.
    Размер потока : 127 Мбайт (3%)
    Заголовок : Профессиональный (многоголосый закадровый) СТС
    Язык : Russian
    Default : Нет
    Forced : Нет
    Аудио #4
    Идентификатор : 5
    Формат : AC-3
    Формат/Информация : Audio Coding 3
    Расширение режима : CM (complete main)
    Параметр Endianness формата : Big
    Идентификатор кодека : A_AC3
    Продолжительность : 1 ч. 32 м.
    Вид битрейта : Постоянный
    Битрейт : 192 Кбит/сек
    Каналы : 2 канала
    Расположение каналов : Front: L R
    Частота : 48,0 КГц
    Частота кадров : 31,250 кадров/сек (1536 spf)
    Метод сжатия : С потерями
    Задержка видео : -16 мс.
    Размер потока : 127 Мбайт (3%)
    Заголовок : Профессиональный (двухголосый, закадровый)
    Язык : Russian
    Default : Нет
    Forced : Нет
    Аудио #5
    Идентификатор : 6
    Формат : AC-3
    Формат/Информация : Audio Coding 3
    Расширение режима : CM (complete main)
    Параметр Endianness формата : Big
    Идентификатор кодека : A_AC3
    Продолжительность : 1 ч. 32 м.
    Вид битрейта : Постоянный
    Битрейт : 192 Кбит/сек
    Каналы : 2 канала
    Расположение каналов : Front: L R
    Частота : 48,0 КГц
    Частота кадров : 31,250 кадров/сек (1536 spf)
    Метод сжатия : С потерями
    Задержка видео : -16 мс.
    Размер потока : 127 Мбайт (3%)
    Заголовок : Профессиональный (двухголосый закадровый) VHS
    Язык : Russian
    Default : Нет
    Forced : Нет
    Аудио #6
    Идентификатор : 7
    Формат : AC-3
    Формат/Информация : Audio Coding 3
    Расширение режима : CM (complete main)
    Параметр Endianness формата : Big
    Идентификатор кодека : A_AC3
    Продолжительность : 1 ч. 32 м.
    Вид битрейта : Постоянный
    Битрейт : 192 Кбит/сек
    Каналы : 2 канала
    Расположение каналов : Front: L R
    Частота : 48,0 КГц
    Частота кадров : 31,250 кадров/сек (1536 spf)
    Метод сжатия : С потерями
    Задержка видео : -16 мс.
    Размер потока : 127 Мбайт (3%)
    Заголовок : Авторский (одноголосый закадровый) Гаврилов
    Язык : Russian
    Default : Нет
    Forced : Нет
    Аудио #7
    Идентификатор : 8
    Формат : AC-3
    Формат/Информация : Audio Coding 3
    Расширение режима : CM (complete main)
    Параметр Endianness формата : Big
    Идентификатор кодека : A_AC3
    Продолжительность : 1 ч. 32 м.
    Вид битрейта : Постоянный
    Битрейт : 448 Кбит/сек
    Каналы : 6 каналов
    Расположение каналов : Front: L C R, Side: L R, LFE
    Частота : 48,0 КГц
    Частота кадров : 31,250 кадров/сек (1536 spf)
    Метод сжатия : С потерями
    Задержка видео : -16 мс.
    Размер потока : 297 Мбайт (8%)
    Язык : English
    Default : Нет
    Forced : Нет
    Текст
    Идентификатор : 9
    Формат : UTF-8
    Идентификатор кодека : S_TEXT/UTF8
    Идентификатор кодека/Информация : UTF-8 Plain Text
    Язык : Russian
    Default : Нет
    Forced : Нет

    Скриншоты


    Скачать .torrent

    Скачать торрент-файл бесплатно и на максимальной скорости!

    Как скачивать? · Что такое торрент? · Рейтинг и ограничения

    !ВНИМАНИЕ!
    Сайт не распространяет и не хранит электронные версии произведений, а занимается лишь лишь предоставлением доступа к создаваемому пользователями каталогу ссылок на торрент-файлы, которые содержат только списки хеш-сумм, убедительная просьба с жалобами обращаться напрямую к пользователю. Файлы для обмена на трекере предоставлены пользователями сайта, и администрация не несёт ответственности за их содержание. Просьба не заливать файлы, защищенные авторскими правами, а также файлы нелегального содержания!


    _________________
    [Профиль] [ЛС]
    Показать сообщения:    
    Ответить на тему

    Текущее время: Сегодня, в 17:47

    Часовой пояс: GMT + 2



    Вы не можете начинать темы
    Вы не можете отвечать на сообщения
    Вы не можете редактировать свои сообщения
    Вы не можете удалять свои сообщения
    Вы не можете голосовать в опросах
    Вы не можете прикреплять файлы к сообщениям
    Вы не можете скачивать файлы