BitTorrentTracker PerecTracker.org
BitTorrentTracker PerecTracker.org
    
Регистрация  ·  Вход
 
 · 
Забыли пароль?

  • Без компромиссов / Blitz (Эллиотт Лестер / Elliott Lester) [2011, Великобритания, Франция, США, триллер, боевик, криминал, экранизация, BDRemux 1080p] Dub (BD RUS) + AVO (А. Гаврилов) + 3x VO + Original Eng + Sub Rus, Ukr, Eng

    Ответить на тему
     
    Автор Сообщение

    Light

    Создавать темы 25-Апр-2016 19:29

           

    [Цитировать]

    Без компромиссов / Blitz
    Страна: Великобритания, Франция, США
    Студия: Lionsgate, Blitz Films
    Жанр: Триллер, криминал
    Год выпуска: 2011
    Продолжительность: 01:37:38
    Перевод 1: Профессиональный (дублированный) BD RUS
    Перевод 2: Авторский (одноголосый закадровый) А. Гаврилов
    Перевод 3: Одноголосый закадровый А. Дасевич
    Перевод 4: Одноголосый закадровый М. Яроцкий
    Перевод 5-6: Одноголосый закадровый В. Замез (Cencored, Uncencored)
    Cубтитры: Русские, Украинские, Английские
    Оригинальная аудиодорожка: Английский
    Режиссер: Эллиотт Лестер / Elliott Lester
    В ролях: Джейсон Стэйтем, Пэдди Консидайн, Эйден Гиллен, Зэйв Эштон, Дэвид Моррисси, Нед Деннехи, Марк Райлэнс, Люк Эванс, Никки Хенсон, Стивен Харвуд-Браун.
    Описание: Семь или восемь? Не в граммах, а в полицейских!.. Именно этим вопросом задается лондонский маньяк, решивший прославиться. Выбрав себе для первых полос таблоидов звучный псевдоним Блиц и вооружившись молотком, Барри Вайс выходит на улицы. И теперь главному герою придется спасать свою шкуру и пытаться остановить сумасшедшего убийцу…-Рейтинг
    -Сэмпл
    Тип релиза: BDRemux 1080p
    Контейнер: MKV
    Видео: 1920x1080 (16:9), 23.976 fps, x264, ~29951 kbps | GER Transfer
    Аудио 1: Russian: 48 kHz, AC3, 3/2 (L,C,R,l,r) + LFE ch, ~640 kbps | Дубляж, BD RUS
    Аудио 2: Russian: DTS-HD Master Audio, 5.1, 48 kHz, 2260 kbps, 16-bit (DTS Core: 5.1, 48 kHz, 1509 kbps, 16-bit) | Одноголосый закадровый, А. Гаврилов
    Аудио 3: Russian: DTS-HD Master Audio, 5.1, 48 kHz, 2247 kbps, 16-bit (DTS Core: 5.1, 48 kHz, 1509 kbps, 16-bit) | Одноголосый закадровый, А. Дасевич
    Аудио 4: Russian: 48 kHz, AC3, 3/2 (L,C,R,l,r) + LFE ch, ~448 kbps | Одноголосый закадровый, М. Яроцкий
    Аудио 5: Russian: 48 kHz, AC3, 3/2 (L,C,R,l,r) + LFE ch, ~448 kbps | Одноголосый закадровый, В. Замез (Cencored)
    Аудио 6: Russian: 48 kHz, AC3, 3/2 (L,C,R,l,r) + LFE ch, ~448 kbps | Одноголосый закадровый, В. Замез (Uncencored)
    Аудио 7: Ukrainian: 48 kHz, AC3, 3/2 (L,C,R,l,r) + LFE ch, ~448 kbps | Дубляж, DR Studio
    Аудио 8: English: DTS-HD Master Audio, 5.1, 48 kHz, 2241 kbps, 16-bit (DTS Core: 5.1, 48 kHz, 1509 kbps, 16-bit)
    Субтитры: Русские (Full, SDH [Stevvie]), Украинские (Full), Английские (Full, SDH)
    Формат субтитров: softsub (SRT)

    Дополнительно

    В дубляж BD RUS добавлен LFE канал.
    За дорожку А. Гаврилова спасибо timur и всем причастным к появлению перевода.
    За дорожку А. Дасевича спасибо HDСLUB.
    За дорожку М. Яроцкого спасибо mihey10. Работа со звуком Bloodymetall.

    MediaInfo

    Общее
    Unique ID : 218245107574558571265242014564928492610 (0xA4307A91F0F0C76CBE62C2E6A06C9442)
    Complete name : E:\video_rutracker\BLITZ_2011_REMUX.mkv
    Format : Matroska
    Format version : Version 2
    File size : 26,7 Гбайт
    Duration : 1 ч. 37 м.
    Overall bit rate mode : Переменный
    Movie name : Blitz.2011.BD-Remux igrok2012
    Overall bit rate : 39,1 Мбит/сек
    Encoded date : UTC 2016-04-24 07:46:28
    Writing application : mkvmerge v8.3.0 ('Over the Horizon') 64bit
    Writing library : libebml v1.3.1 + libmatroska v1.4.2
    Attachements : cover.jpg
    Видео
    ID : 1
    Format : AVC
    Format/Info : Advanced Video Codec
    Format profile : High@L4.1
    Format settings, CABAC : Да
    Format settings, ReFrames : 4 кадра
    Codec ID : V_MPEG4/ISO/AVC
    Duration : 1 ч. 37 м.
    Bit rate mode : Переменный
    Maximum bit rate : 38,0 Мбит/сек
    Width : 1920 пикселей
    Height : 1080 пикселей
    Display aspect ratio : 16:9
    Frame rate mode : Постоянный
    Frame rate : 23,976 (24000/1001) кадра/сек
    Color space : YUV
    Chroma subsampling : 4:2:0
    Bit depth : 8 бит
    Scan type : Прогрессивная
    Title : Blitz (2011) 1080p GER BDRemux
    Language : English
    Default : Да
    Forced : Нет
    Color range : Limited
    Color primaries : BT.709
    Transfer characteristics : BT.709
    Matrix coefficients : BT.709
    Аудио #1
    ID : 2
    Format : AC-3
    Format/Info : Audio Coding 3
    Mode extension : CM (complete main)
    Format settings, Endianness : Big
    Codec ID : A_AC3
    Duration : 1 ч. 37 м.
    Bit rate mode : Постоянный
    Bit rate : 640 Кбит/сек
    Channel(s) : 6 каналов
    Channel positions : Front: L C R, Side: L R, LFE
    Sampling rate : 48,0 КГц
    Frame rate : 31,250 кадров/сек (1536 spf)
    Compression mode : С потерями
    Stream size : 447 Мбайт (2%)
    Title : Дубляж, BD RUS
    Language : Russian
    Default : Да
    Forced : Нет
    Аудио #2
    ID : 3
    Format : DTS
    Format/Info : Digital Theater Systems
    Format profile : MA / Core
    Mode : 16
    Format settings, Endianness : Big
    Codec ID : A_DTS
    Duration : 1 ч. 37 м.
    Bit rate mode : Переменный / Постоянный
    Bit rate : 2260 Кбит/сек / 1509 Кбит/сек
    Channel(s) : 6 каналов
    Channel positions : Front: L C R, Side: L R, LFE
    Sampling rate : 48,0 КГц
    Frame rate : 93,750 кадра/сек (512 spf)
    Bit depth : 16 бит
    Compression mode : Без потерь / Lossy
    Title : Одноголосый закадровый, А. Гаврилов
    Language : Russian
    Default : Нет
    Forced : Нет
    Аудио #3
    ID : 4
    Format : DTS
    Format/Info : Digital Theater Systems
    Format profile : MA / Core
    Mode : 16
    Format settings, Endianness : Big
    Codec ID : A_DTS
    Duration : 1 ч. 37 м.
    Bit rate mode : Переменный / Постоянный
    Bit rate : 2247 Кбит/сек / 1509 Кбит/сек
    Channel(s) : 6 каналов
    Channel positions : Front: L C R, Side: L R, LFE
    Sampling rate : 48,0 КГц
    Frame rate : 93,750 кадра/сек (512 spf)
    Bit depth : 16 бит
    Compression mode : Без потерь / Lossy
    Title : Одноголосый закадровый, А. Дасевич
    Language : Russian
    Default : Нет
    Forced : Нет
    Аудио #4
    ID : 5
    Format : AC-3
    Format/Info : Audio Coding 3
    Mode extension : CM (complete main)
    Format settings, Endianness : Big
    Codec ID : A_AC3
    Duration : 1 ч. 37 м.
    Bit rate mode : Постоянный
    Bit rate : 448 Кбит/сек
    Channel(s) : 6 каналов
    Channel positions : Front: L C R, Side: L R, LFE
    Sampling rate : 48,0 КГц
    Frame rate : 31,250 кадров/сек (1536 spf)
    Compression mode : С потерями
    Stream size : 313 Мбайт (1%)
    Title : Одноголосый закадровый, М. Яроцкий
    Language : Russian
    Default : Нет
    Forced : Нет
    Аудио #5
    ID : 6
    Format : AC-3
    Format/Info : Audio Coding 3
    Mode extension : CM (complete main)
    Format settings, Endianness : Big
    Codec ID : A_AC3
    Duration : 1 ч. 37 м.
    Bit rate mode : Постоянный
    Bit rate : 448 Кбит/сек
    Channel(s) : 6 каналов
    Channel positions : Front: L C R, Side: L R, LFE
    Sampling rate : 48,0 КГц
    Frame rate : 31,250 кадров/сек (1536 spf)
    Compression mode : С потерями
    Stream size : 313 Мбайт (1%)
    Title : Одноголосый закадровый, В. Замез
    Language : Russian
    Default : Нет
    Forced : Нет
    Аудио #6
    ID : 7
    Format : AC-3
    Format/Info : Audio Coding 3
    Mode extension : CM (complete main)
    Format settings, Endianness : Big
    Codec ID : A_AC3
    Duration : 1 ч. 37 м.
    Bit rate mode : Постоянный
    Bit rate : 448 Кбит/сек
    Channel(s) : 6 каналов
    Channel positions : Front: L C R, Side: L R, LFE
    Sampling rate : 48,0 КГц
    Frame rate : 31,250 кадров/сек (1536 spf)
    Compression mode : С потерями
    Stream size : 313 Мбайт (1%)
    Title : Одноголосый закадровый, В. Замез ( Uncencored )
    Language : Russian
    Default : Нет
    Forced : Нет
    Аудио #7
    ID : 8
    Format : AC-3
    Format/Info : Audio Coding 3
    Mode extension : CM (complete main)
    Format settings, Endianness : Big
    Codec ID : A_AC3
    Duration : 1 ч. 37 м.
    Bit rate mode : Постоянный
    Bit rate : 448 Кбит/сек
    Channel(s) : 6 каналов
    Channel positions : Front: L C R, Side: L R, LFE
    Sampling rate : 48,0 КГц
    Frame rate : 31,250 кадров/сек (1536 spf)
    Compression mode : С потерями
    Stream size : 313 Мбайт (1%)
    Title : Дубляж, DR Studio
    Language : Ukrainian
    Default : Нет
    Forced : Нет
    Аудио #8
    ID : 9
    Format : DTS
    Format/Info : Digital Theater Systems
    Format profile : MA / Core
    Mode : 16
    Format settings, Endianness : Big
    Codec ID : A_DTS
    Duration : 1 ч. 37 м.
    Bit rate mode : Переменный / Постоянный
    Bit rate : 2241 Кбит/сек / 1509 Кбит/сек
    Channel(s) : 6 каналов
    Channel positions : Front: L C R, Side: L R, LFE
    Sampling rate : 48,0 КГц
    Frame rate : 93,750 кадра/сек (512 spf)
    Bit depth : 16 бит
    Compression mode : Без потерь / Lossy
    Language : English
    Default : Нет
    Forced : Нет
    Текст #1
    ID : 10
    Format : UTF-8
    Codec ID : S_TEXT/UTF8
    Codec ID/Info : UTF-8 Plain Text
    Title : Full
    Language : Russian
    Default : Нет
    Forced : Нет
    Текст #2
    ID : 11
    Format : UTF-8
    Codec ID : S_TEXT/UTF8
    Codec ID/Info : UTF-8 Plain Text
    Title : SDH, Stevvie
    Language : Russian
    Default : Нет
    Forced : Нет
    Текст #3
    ID : 12
    Format : UTF-8
    Codec ID : S_TEXT/UTF8
    Codec ID/Info : UTF-8 Plain Text
    Title : Full
    Language : Ukrainian
    Default : Нет
    Forced : Нет
    Текст #4
    ID : 13
    Format : UTF-8
    Codec ID : S_TEXT/UTF8
    Codec ID/Info : UTF-8 Plain Text
    Title : Full
    Language : Russian
    Default : Нет
    Forced : Нет
    Текст #5
    ID : 14
    Format : UTF-8
    Codec ID : S_TEXT/UTF8
    Codec ID/Info : UTF-8 Plain Text
    Title : SDH
    Language : English
    Default : Нет
    Forced : Нет
    Меню
    00:00:00.000 : en:Chapter 1
    00:08:44.315 : en:Chapter 2
    00:16:29.780 : en:Chapter 3
    00:23:39.960 : en:Chapter 4
    00:31:07.198 : en:Chapter 5
    00:40:13.869 : en:Chapter 6
    00:48:02.713 : en:Chapter 7
    00:55:24.612 : en:Chapter 8
    01:03:44.570 : en:Chapter 9
    01:11:32.830 : en:Chapter 10
    01:20:07.969 : en:Chapter 11
    01:32:12.527 : en:Chapter 12

    Скриншоты


    Скачать .torrent

    Скачать торрент-файл бесплатно и на максимальной скорости!

    Как скачивать? · Что такое торрент? · Рейтинг и ограничения

    !ВНИМАНИЕ!
    Сайт не распространяет и не хранит электронные версии произведений, а занимается лишь лишь предоставлением доступа к создаваемому пользователями каталогу ссылок на торрент-файлы, которые содержат только списки хеш-сумм, убедительная просьба с жалобами обращаться напрямую к пользователю. Файлы для обмена на трекере предоставлены пользователями сайта, и администрация не несёт ответственности за их содержание. Просьба не заливать файлы, защищенные авторскими правами, а также файлы нелегального содержания!


    _________________
    [Профиль] [ЛС]
    Показать сообщения:    
    Ответить на тему

    Текущее время: Сегодня, в 10:09

    Часовой пояс: GMT + 2



    Вы не можете начинать темы
    Вы не можете отвечать на сообщения
    Вы не можете редактировать свои сообщения
    Вы не можете удалять свои сообщения
    Вы не можете голосовать в опросах
    Вы не можете прикреплять файлы к сообщениям
    Вы не можете скачивать файлы