BitTorrentTracker PerecTracker.org
BitTorrentTracker PerecTracker.org
    
Регистрация  ·  Вход
 
 · 
Забыли пароль?

  • Психованные / Сумасшедшие люди / Crazy People (Тони Билл / Tony Bill, Бэрри Янг / Barry L. Young) [1990, США, комедия, WEB-DL 720p] 2x MVO + AVO + Sub Eng + Original Eng

    Ответить на тему
     
    Автор Сообщение

    Light

    Создавать темы 25-Апр-2016 19:29

           

    [Цитировать]

    Психованные / Сумасшедшие люди / Crazy People
    -Страна: США
    Жанр: комедия
    Год выпуска: 1990
    Продолжительность: 01:31:21-Перевод: Профессиональный (многоголосый, закадровый) Paramount channel
    Перевод: Профессиональный (многоголосый, закадровый)
    Перевод: Авторский (одноголосый, закадровый) Горчаков
    Cубтитры: английские
    Оригинальная аудиодорожка: английский-Режиссер: Тони Билл / Tony Bill, Бэрри Янг / Barry L. Young-В ролях: Дадли Мур, Дэрил Ханна, Пол Райзер, Джей Ти Уолш, Билл Смитрович, Алан Норт-Описание:
    Задолбанный повседневностью, рекламный агент Эмори вот-вот провалит задание. Чтобы отвязаться, он лепит под каждой картинкой то, что на самом деле думает о выставленном на продажу товаре и, конечно, быстренько попадает в прихушку. В то же самое время его "реклама" случайно идет в печать и имеет бешеный успех.
    В психушке Эмори заводит массу странных, но интересных друзей и даже встречает девушку своей мечты. Когда выясняется, что он и его революционные идеи жизненно необходимы компании, он устраивает в психушке штаб-квартиру и привлекает новых друзей к работе. Так рекламное дело поднимается на совершенно новую ступень...-Сэмпл: Скачать-Тип релиза: WEB-DL 720p
    Контейнер: MKV-Видео: 1280x718 (16:9); 4080 Kbps; 23.976 fps; 0.178 bpp
    Аудио 1: Russian; AC3; 48.0 KHz; 2ch; 192 Kbps MVO Paramount channel
    Аудио 2: Russian; AC3; 48.0 KHz; 2ch; 192 Kbps MVO
    Аудио 3: Russian; AC3; 48.0 KHz; 2ch; 192 Kbps AVO Горчаков
    Аудио 4: English; AAC; 48.0 KHz; 2ch; 160 Kbps

    MediaInfo

    Format : Matroska
    Format version : Version 4 / Version 2
    File size : 3.07 GiB
    Duration : 1h 31mn
    Overall bit rate : 4 805 Kbps
    Encoded date : UTC 2015-11-19 11:27:09
    Writing application : mkvmerge v8.3.0 ('Over the Horizon') 64bit
    Writing library : libebml v1.3.1 + libmatroska v1.4.2
    Attachements : poster.jpg
    DURATION : 01:31:21.440000000
    NUMBER_OF_FRAMES : 171295
    NUMBER_OF_BYTES : 131554560
    _STATISTICS_WRITING_APP : mkvmerge v8.3.0 ('Over the Horizon') 64bit
    _STATISTICS_WRITING_DATE_UT : 2015-11-19 11:27:09
    _STATISTICS_TAGS : BPS DURATION NUMBER_OF_FRAMES NUMBER_OF_BYTES
    Video
    ID : 1
    Format : AVC
    Format/Info : Advanced Video Codec
    Format profile : High@L3.1
    Format settings, CABAC : No
    Format settings, ReFrames : 2 frames
    Codec ID : V_MPEG4/ISO/AVC
    Duration : 1h 31mn
    Width : 1 280 pixels
    Height : 718 pixels
    Display aspect ratio : 16:9
    Frame rate mode : Constant
    Frame rate : 23.976 fps
    Color space : YUV
    Chroma subsampling : 4:2:0
    Bit depth : 8 bits
    Scan type : Progressive
    Language : English
    Default : Yes
    Forced : No
    Color range : Limited
    Color primaries : BT.709
    Transfer characteristics : BT.709
    Matrix coefficients : BT.709
    Audio #1
    ID : 2
    Format : AC-3
    Format/Info : Audio Coding 3
    Mode extension : CM (complete main)
    Format settings, Endianness : Big
    Codec ID : A_AC3
    Duration : 1h 31mn
    Bit rate mode : Constant
    Bit rate : 192 Kbps
    Channel(s) : 2 channels
    Channel positions : Front: L R
    Sampling rate : 48.0 KHz
    Compression mode : Lossy
    Stream size : 125 MiB (4%)
    Title : MVO Paramount channel
    Language : Russian
    Default : Yes
    Forced : No
    Audio #2
    ID : 3
    Format : AC-3
    Format/Info : Audio Coding 3
    Mode extension : CM (complete main)
    Format settings, Endianness : Big
    Codec ID : A_AC3
    Duration : 1h 31mn
    Bit rate mode : Constant
    Bit rate : 192 Kbps
    Channel(s) : 2 channels
    Channel positions : Front: L R
    Sampling rate : 48.0 KHz
    Compression mode : Lossy
    Stream size : 125 MiB (4%)
    Title : MVO
    Language : Russian
    Default : No
    Forced : No
    Audio #3
    ID : 4
    Format : AC-3
    Format/Info : Audio Coding 3
    Mode extension : CM (complete main)
    Format settings, Endianness : Big
    Codec ID : A_AC3
    Duration : 1h 31mn
    Bit rate mode : Constant
    Bit rate : 192 Kbps
    Channel(s) : 2 channels
    Channel positions : Front: L R
    Sampling rate : 48.0 KHz
    Compression mode : Lossy
    Stream size : 125 MiB (4%)
    Title : AVO Горчаков
    Language : Russian
    Default : No
    Forced : No
    Audio #4
    ID : 5
    Format : AAC
    Format/Info : Advanced Audio Codec
    Format profile : LC
    Codec ID : A_AAC
    Duration : 1h 31mn
    Channel(s) : 2 channels
    Channel positions : Front: L R
    Sampling rate : 48.0 KHz
    Compression mode : Lossy
    Language : English
    Default : No
    Forced : No
    Text
    ID : 6
    Format : UTF-8
    Codec ID : S_TEXT/UTF8
    Codec ID/Info : UTF-8 Plain Text
    Language : English
    Default : No
    Forced : No
    Menu
    00:00:00.000 : en:Lie For A Living
    00:07:17.000 : en:Level With America
    00:12:14.000 : en:Little Blue Slippers
    00:21:18.000 : en:New Friends
    00:27:20.000 : en:No Nonsense Approach
    00:33:56.000 : en:Ad Men
    00:40:46.000 : en:Pitching Insanity
    00:47:44.000 : en:Stolen Spotlight
    00:55:27.000 : en:Say Something Honest
    00:58:39.000 : en:Vanity Plates
    01:06:24.000 : en:Hope And Doubt
    01:13:14.000 : en:Lonely Freedom
    01:17:47.000 : en:Crazy People Stay Here
    01:22:13.000 : en:Hello, Goodbye

    Скриншоты

    Скачать .torrent

    Скачать торрент-файл бесплатно и на максимальной скорости!

    Как скачивать? · Что такое торрент? · Рейтинг и ограничения

    !ВНИМАНИЕ!
    Сайт не распространяет и не хранит электронные версии произведений, а занимается лишь лишь предоставлением доступа к создаваемому пользователями каталогу ссылок на торрент-файлы, которые содержат только списки хеш-сумм, убедительная просьба с жалобами обращаться напрямую к пользователю. Файлы для обмена на трекере предоставлены пользователями сайта, и администрация не несёт ответственности за их содержание. Просьба не заливать файлы, защищенные авторскими правами, а также файлы нелегального содержания!


    _________________
    [Профиль] [ЛС]
    Показать сообщения:    
    Ответить на тему

    Текущее время: Сегодня, в 19:39

    Часовой пояс: GMT + 2



    Вы не можете начинать темы
    Вы не можете отвечать на сообщения
    Вы не можете редактировать свои сообщения
    Вы не можете удалять свои сообщения
    Вы не можете голосовать в опросах
    Вы не можете прикреплять файлы к сообщениям
    Вы не можете скачивать файлы