BitTorrentTracker PerecTracker.org
BitTorrentTracker PerecTracker.org
    
Регистрация  ·  Вход
 
 · 
Забыли пароль?

  • Рок на Востоке / Rock the Kasbah (Барри Левинсон / Barry Levinson) [2015, США, комедия, военный, музыка, HDTV 1080i] Dub

    Ответить на тему
     
    Автор Сообщение

    Light

    Создавать темы 25-Апр-2016 19:29

           

    [Цитировать]

    Рок на Востоке / Rock the Kasbah-Страна: США
    Жанр: комедия, военный, музыка
    Год выпуска: 2015
    Продолжительность: 01:39:49-Перевод: Профессиональный (дублированный)
    Cубтитры: нет
    Оригинальная аудиодорожка: отсутствует-Режиссер: Барри Левинсон / Barry Levinson
    В ролях: Билл Мюррэй, Брюс Уиллис, Кейт Хадсон, Зои Дешанель, Лим Лубани, Ариан Моайед, Скотт Каан, Дэнни МакБрайд, Фахим Фазли, Имран Кхан- | Релиз: -Описание: Никому не нужный музыкальный продюсер находит последний шанс в спасении молодой девушки с золотым голосом в Афганистане.-Семпл: http://sendfile.su/1227723-Тип релиза: HDTV 1080i
    Контейнер: TS
    Видео: 1920x1080 (16:9), 25.000 fps, AVC, ~7984 Kbps, 0.154 bits/pixel
    Аудио: Русский, 48.0 KHz, AC3, 6 ch, 384 Kbps

    MediaInfo

    GeneralID : 1 (0x1)Complete name : Rock the Kasbah 2015 TV1000PremiumHD Dub.tsFormat : MPEG-TSFile size : 6.14 GiBDuration : 1h 39mnOverall bit rate mode : VariableOverall bit rate : 8 808 Kbps
    VideoID : 304 (0x130)Menu ID : 1 (0x1)Format : AVCFormat/Info : Advanced Video CodecFormat profile : High@L4Format settings, CABAC : YesFormat settings, ReFrames : 4 framesCodec ID : 27Duration : 1h 39mnBit rate : 7 984 KbpsWidth : 1 920 pixelsHeight : 1 080 pixelsDisplay aspect ratio : 16:9Frame rate : 25.000 fpsStandard : ComponentColor space : YUVChroma subsampling : 4:2:0Bit depth : 8 bitsScan type : InterlacedScan type, store method : Separated fieldsScan order : Top Field FirstBits/(Pixel*Frame) : 0.154Stream size : 5.57 GiB (91%)Color range : LimitedColor primaries : BT.709Transfer characteristics : BT.709Matrix coefficients : BT.709
    AudioID : 424 (0x1A8)Menu ID : 1 (0x1)Format : AC-3Format/Info : Audio Coding 3Mode extension : CM (complete main)Format settings, Endianness : BigCodec ID : 6Duration : 1h 39mnBit rate mode : ConstantBit rate : 384 KbpsChannel(s) : 6 channelsChannel positions : Front: L C R, Side: L R, LFESampling rate : 48.0 KHzFrame rate : 31.250 fps (1536 spf)Compression mode : LossyStream size : 274 MiB (4%)Language : Russian

    Скриншоты

    Скачать .torrent

    Скачать торрент-файл бесплатно и на максимальной скорости!

    Как скачивать? · Что такое торрент? · Рейтинг и ограничения

    !ВНИМАНИЕ!
    Сайт не распространяет и не хранит электронные версии произведений, а занимается лишь лишь предоставлением доступа к создаваемому пользователями каталогу ссылок на торрент-файлы, которые содержат только списки хеш-сумм, убедительная просьба с жалобами обращаться напрямую к пользователю. Файлы для обмена на трекере предоставлены пользователями сайта, и администрация не несёт ответственности за их содержание. Просьба не заливать файлы, защищенные авторскими правами, а также файлы нелегального содержания!


    _________________
    [Профиль] [ЛС]
    Показать сообщения:    
    Ответить на тему

    Текущее время: Сегодня, в 10:41

    Часовой пояс: GMT + 2



    Вы не можете начинать темы
    Вы не можете отвечать на сообщения
    Вы не можете редактировать свои сообщения
    Вы не можете удалять свои сообщения
    Вы не можете голосовать в опросах
    Вы не можете прикреплять файлы к сообщениям
    Вы не можете скачивать файлы