Register  ·  Log in
Forgot password?

  • Рок на Востоке / Rock the Kasbah (Барри Левинсон / Barry Levinson) [2015, США, комедия, военный, музыка, HDTV 1080i] Dub

    Reply to topic
    Author Message


    Post 25-Apr-2016 20:29



    Рок на Востоке / Rock the Kasbah-Страна: США
    Жанр: комедия, военный, музыка
    Год выпуска: 2015
    Продолжительность: 01:39:49-Перевод: Профессиональный (дублированный)
    Cубтитры: нет
    Оригинальная аудиодорожка: отсутствует-Режиссер: Барри Левинсон / Barry Levinson
    В ролях: Билл Мюррэй, Брюс Уиллис, Кейт Хадсон, Зои Дешанель, Лим Лубани, Ариан Моайед, Скотт Каан, Дэнни МакБрайд, Фахим Фазли, Имран Кхан- | Релиз: -Описание: Никому не нужный музыкальный продюсер находит последний шанс в спасении молодой девушки с золотым голосом в Афганистане.-Семпл:Тип релиза: HDTV 1080i
    Контейнер: TS
    Видео: 1920x1080 (16:9), 25.000 fps, AVC, ~7984 Kbps, 0.154 bits/pixel
    Аудио: Русский, 48.0 KHz, AC3, 6 ch, 384 Kbps


    GeneralID : 1 (0x1)Complete name : Rock the Kasbah 2015 TV1000PremiumHD Dub.tsFormat : MPEG-TSFile size : 6.14 GiBDuration : 1h 39mnOverall bit rate mode : VariableOverall bit rate : 8 808 Kbps
    VideoID : 304 (0x130)Menu ID : 1 (0x1)Format : AVCFormat/Info : Advanced Video CodecFormat profile : High@L4Format settings, CABAC : YesFormat settings, ReFrames : 4 framesCodec ID : 27Duration : 1h 39mnBit rate : 7 984 KbpsWidth : 1 920 pixelsHeight : 1 080 pixelsDisplay aspect ratio : 16:9Frame rate : 25.000 fpsStandard : ComponentColor space : YUVChroma subsampling : 4:2:0Bit depth : 8 bitsScan type : InterlacedScan type, store method : Separated fieldsScan order : Top Field FirstBits/(Pixel*Frame) : 0.154Stream size : 5.57 GiB (91%)Color range : LimitedColor primaries : BT.709Transfer characteristics : BT.709Matrix coefficients : BT.709
    AudioID : 424 (0x1A8)Menu ID : 1 (0x1)Format : AC-3Format/Info : Audio Coding 3Mode extension : CM (complete main)Format settings, Endianness : BigCodec ID : 6Duration : 1h 39mnBit rate mode : ConstantBit rate : 384 KbpsChannel(s) : 6 channelsChannel positions : Front: L C R, Side: L R, LFESampling rate : 48.0 KHzFrame rate : 31.250 fps (1536 spf)Compression mode : LossyStream size : 274 MiB (4%)Language : Russian


    Download .torrent

    Download free and at maximum speed!

    How to Download? · What is a torrent? · Ratings and Limitations

    The site does not extend and does not store electronic(digital) versions of products, and only gives access to a reference catalogue created by users on torrent-files which contain only lists of the hash-sums, the earnest entreaty, with complaints(abuse) to access directly to the user. Files for an exchange on tracker are given by users of a site, and the administration does not bear the responsibility for their maintenance. The request to not fill in the files protected by copyrights, and also files of the illegal maintenance!

    [Profile] [PM]
    Display posts from previous:    
    Reply to topic

    The time now is: Today 03:43

    All times are GMT + 3 Hours

    You cannot post new topics in this forum
    You cannot reply to topics in this forum
    You cannot edit your posts in this forum
    You cannot delete your posts in this forum
    You cannot vote in polls in this forum
    You cannot attach files in this forum
    You cannot download files in this forum