BitTorrentTracker PerecTracker.org
BitTorrentTracker PerecTracker.org
    
Регистрация  ·  Вход
 
 · 
Забыли пароль?

  • Звёздные войны: Пробуждение силы / Star Wars: The Force Awakens (Джей Джей Абрамс / J.J. Abrams) [2015, США, фантастика, фэнтези, боевик, приключения, BDRip 1080p] Dub + MVO + Sub Rus, Eng + Original Eng

    Ответить на тему
     
    Автор Сообщение

    Light

    Создавать темы 25-Апр-2016 19:29

           

    [Цитировать]

    -Звёздные войны: Пробуждение силы / Star Wars: The Force Awakens-Страна: США
    Жанр: Фантастика, фэнтези, боевик, приключения
    Год выпуска: 2015
    Продолжительность: 02:18:06-Перевод: Профессиональный (дублированный)
    Перевод 2: Профессиональный (многоголосый закадровый) FocusStudio
    Cубтитры: русские x3 (forced на титры и речь пришельцев; полные), английские x3 (full, SDH, SDH-COLORED)
    Оригинальная аудиодорожка: английский-Режиссер: Джей Джей Абрамс / J.J. Abrams
    В ролях: Джон Бойега, Дэйзи Ридли, Оскар Айзек, Адам Драйвер, Донал Глисон, Харрисон Форд, Марк Хэмилл, Кэрри Фишер, Макс фон Сюдов, Энди Серкис, Лупита Нионго, Энтони Дэниелс, Питер Мейхью, Гвендолин Кристи, Пип Андерсон, Саймон Пегг, Киран Шах, Саша Фрост, Пип Торренс, Эндрю Джек-Описание: Через тридцать лет после гибели Дарта Вейдера и Императора галактика по-прежнему в опасности. Государственное образование Новый Порядок во главе с их таинственным верховным лидером Сноуком и его правой рукой Кайло Реном идёт по стопам Империи, пытаясь захватить всю власть. В это нелёгкое время судьба сводит юную девушку Рей и бывшего штурмовика Нового Порядка Финна с героями времён войны с Империей — Ханом Соло, Чубаккой и Королевой Леей. Вместе они должны дать бой Новому Порядку, однако настаёт тот момент, когда становится очевидно, что лишь джедаи могут остановить Сноука и Кайло Рена. И в галактике в живых остаётся только один…-Сэмпл-Тип релиза: BDRip 1080p
    Контейнер: MKV
    Видео: MPEG-4 AVC Video 15300 kbps 1920x800p / 23.976 fps / High Profile 4.1
    Аудио: Russian Dolby Digital Audio 5.1 / 48 kHz / 640 kbps | Дубляж
    Аудио 2: Russian DTS Audio 5.1 / 48 kHz / 1509 kbps | MVO
    Аудио 3: English DTS Audio 5.1 / 48 kHz / 1509 kbps
    Формат субтитров: softsub (SRT)

    Видеояд от HDClub

    HDClub vs. Source




    MI

    GeneralUnique ID : 203320714854873934828028208349595214359 (0x98F62532BAC61843B79043624D82A217)Complete name : S:\На хранении\Звёздные войны. Пробуждение силы (2016. Star Wars. The Force Awakens) 1080p.mkvFormat : MatroskaFormat version : Version 4 / Version 2File size : 18.7 GiBDuration : 2h 18mnOverall bit rate : 19.4 MbpsMovie name : Release for RuTrackerEncoded date : UTC 2016-04-24 17:31:39Writing application : mkvmerge v9.0.1 ('Obstacles') 64bitWriting library : libebml v1.3.3 + libmatroska v1.4.4Cover : YesAttachments : Cover.jpg
    VideoID : 1Format : AVCFormat/Info : Advanced Video CodecFormat profile : High@L4.1Format settings, CABAC : YesFormat settings, ReFrames : 5 framesCodec ID : V_MPEG4/ISO/AVCDuration : 2h 18mnBit rate : 15.7 MbpsWidth : 1 920 pixelsHeight : 800 pixelsDisplay aspect ratio : 2.40:1Frame rate mode : ConstantFrame rate : 23.976 (24000/1001) fpsColor space : YUVChroma subsampling : 4:2:0Bit depth : 8 bitsScan type : ProgressiveBits/(Pixel*Frame) : 0.426Stream size : 15.1 GiB (81%)Title : Star Wars: Episode VII - The Force Awakens (2015) - HDCLUBWriting library : x264 core 142 r2431+42 c69a006 tMod [8-bit@all X86_64]Encoding settings : cabac=1 / ref=5 / deblock=1:-3:-3 / analyse=0x3:0x133 / me=tesa / subme=11 / psy=1 / fade_compensate=0.00 / psy_rd=1.00:0.00 / mixed_ref=1 / me_range=32 / chroma_me=1 / trellis=2 / 8x8dct=1 / cqm=0 / deadzone=21,11 / fast_pskip=0 / chroma_qp_offset=-2 / threads=18 / lookahead_threads=3 / sliced_threads=0 / nr=0 / decimate=1 / interlaced=0 / bluray_compat=0 / constrained_intra=0 / fgo=0 / bframes=8 / b_pyramid=2 / b_adapt=2 / b_bias=0 / direct=1 / weightb=1 / open_gop=0 / weightp=2 / keyint=240 / keyint_min=23 / scenecut=40 / intra_refresh=0 / rc_lookahead=60 / rc=crf / mbtree=0 / crf=17.0000 / qcomp=0.60 / qpmin=0:0:0 / qpmax=69:69:69 / qpstep=4 / vbv_maxrate=50000 / vbv_bufsize=62500 / crf_max=0.0 / nal_hrd=none / filler=0 / ip_ratio=1.35 / pb_ratio=1.25 / aq=1:0.80 / aq-sensitivity=10.00 / aq-factor=1.00:1.00:1.00 / aq2=0 / aq3=0 / zones=6888,6906,crf=14/10837,10844,crf=13/10924,10938,crf=13/53676,53682,crf=13/56873,56920,crf=14/95545,95553,crf=14/100350,100970,crf=14/101329,101930,crf=14/105517,105791,crf=16/111197,111240,crf=14/112200,112275,crf=14/132261,132431,crf=14/144821,144860,crf=14/155875,156058,crf=13/156486,157541,crf=15.5/157953,157982,crf=15/158198,158245,crf=13/158276,158310,crf=13/158577,158661,crf=13/159957,160101,crf=14/160898,160991,crf=13/161384,161407,crf=13/161892,161904,crf=14/163586,172667,crf=15/182880,198060,crf=21Language : EnglishDefault : YesForced : No
    Audio #1ID : 2Format : AC-3Format/Info : Audio Coding 3Mode extension : CM (complete main)Format settings, Endianness : BigCodec ID : A_AC3Duration : 2h 18mnBit rate mode : ConstantBit rate : 640 KbpsChannel(s) : 6 channelsChannel positions : Front: L C R, Side: L R, LFESampling rate : 48.0 KHzFrame rate : 31.250 fps (1536 spf)Compression mode : LossyStream size : 632 MiB (3%)Title : ДубляжLanguage : RussianDefault : YesForced : No
    Audio #2ID : 3Format : DTSFormat/Info : Digital Theater SystemsMode : 16Format settings, Endianness : BigCodec ID : A_DTSDuration : 2h 18mnBit rate mode : ConstantBit rate : 1 509 KbpsChannel(s) : 6 channelsChannel positions : Front: L C R, Side: L R, LFESampling rate : 48.0 KHzFrame rate : 93.750 fps (512 spf)Bit depth : 24 bitsCompression mode : LossyStream size : 1.46 GiB (8%)Title : MVO [FocusStudio]Language : RussianDefault : NoForced : No
    Audio #3ID : 4Format : DTSFormat/Info : Digital Theater SystemsMode : 16Format settings, Endianness : BigCodec ID : A_DTSDuration : 2h 18mnBit rate mode : ConstantBit rate : 1 509 KbpsChannel(s) : 6 channelsChannel positions : Front: L C R, Side: L R, LFESampling rate : 48.0 KHzFrame rate : 93.750 fps (512 spf)Bit depth : 24 bitsCompression mode : LossyStream size : 1.46 GiB (8%)Language : EnglishDefault : NoForced : No
    Text #1ID : 5Format : UTF-8Codec ID : S_TEXT/UTF8Codec ID/Info : UTF-8 Plain TextDuration : 2h 2mnBit rate : 5 bpsCount of elements : 137Stream size : 4.81 KiB (0%)Title : forced с речью дроидовLanguage : RussianDefault : YesForced : No
    Text #2ID : 6Format : UTF-8Codec ID : S_TEXT/UTF8Codec ID/Info : UTF-8 Plain TextDuration : 13mn 58sBit rate : 2 bpsCount of elements : 7Stream size : 314 Bytes (0%)Title : forced только речь пришельцевLanguage : RussianDefault : NoForced : No
    Text #3ID : 7Format : UTF-8Codec ID : S_TEXT/UTF8Codec ID/Info : UTF-8 Plain TextDuration : 2h 2mnBit rate : 72 bpsCount of elements : 1398Stream size : 64.8 KiB (0%)Title : R5 + речь дроидовLanguage : RussianDefault : NoForced : No
    Text #4ID : 8Format : UTF-8Codec ID : S_TEXT/UTF8Codec ID/Info : UTF-8 Plain TextDuration : 2h 4mnBit rate : 73 bpsCount of elements : 1528Stream size : 66.6 KiB (0%)Title : NotabenoidLanguage : RussianDefault : NoForced : No
    Text #5ID : 9Format : UTF-8Codec ID : S_TEXT/UTF8Codec ID/Info : UTF-8 Plain TextDuration : 2h 2mnBit rate : 45 bpsCount of elements : 1472Stream size : 40.4 KiB (0%)Language : EnglishDefault : NoForced : No
    Text #6ID : 10Format : UTF-8Codec ID : S_TEXT/UTF8Codec ID/Info : UTF-8 Plain TextDuration : 2h 6mnBit rate : 52 bpsCount of elements : 1778Stream size : 48.5 KiB (0%)Title : SDHLanguage : EnglishDefault : NoForced : No
    Text #7ID : 11Format : UTF-8Codec ID : S_TEXT/UTF8Codec ID/Info : UTF-8 Plain TextDuration : 2h 6mnBit rate : 74 bpsCount of elements : 1778Stream size : 69.6 KiB (0%)Title : SDH-COLOREDLanguage : EnglishDefault : NoForced : No
    Menu00:00:00.000 : en:1. Opening Logo00:00:09.259 : en:2. The Force Awakens00:01:43.061 : en:3. The First Order Approaches00:03:51.856 : en:4. Village Raid00:06:12.288 : en:5. Kylo Ren00:09:33.948 : en:6. FN-218700:10:43.559 : en:7. Rey00:12:35.713 : en:8. Niima Outpost00:13:39.693 : en:9. Rey At Home00:14:48.220 : en:10. Saving BB-800:16:45.921 : en:11. Interrogation00:18:04.583 : en:12. Unkar's Offer00:19:21.535 : en:13. Jailbreak00:21:26.618 : en:14. TIE Fighter Escape00:24:03.650 : en:15. Marooned On Jakku00:26:47.022 : en:16. Crossing Paths00:29:54.667 : en:17. Marketplace Chase00:31:49.324 : en:18. The Falcon Flies Again00:35:51.774 : en:19. Introductions00:36:40.615 : en:20. Kylo Is Updated00:37:45.513 : en:21. Fixing The Falcon00:40:19.250 : en:22. "Chewie, We're Home"00:43:39.199 : en:23. Corellian Standoff00:45:29.560 : en:24. Rathtar Mayhem00:49:22.918 : en:25. Supreme Leader00:51:19.951 : en:26. "It's All True"00:54:13.750 : en:27. Meeting Maz00:59:48.793 : en:28. Discussions Of Destinies01:04:16.060 : en:29. Visions In The Force01:08:37.238 : en:30. Starkiller01:11:07.221 : en:31. First Order Invasion01:15:16.386 : en:32. Resistance To The Rescue01:16:49.896 : en:33. Kylo Finds Rey01:19:37.522 : en:34. Reunion01:20:56.893 : en:35. Resistance Base01:25:36.172 : en:36. Rey Imprisoned01:32:12.568 : en:37. Resistance Briefing01:35:29.014 : en:38. Starkiller Landing01:36:34.955 : en:39. Base Infiltration01:39:28.629 : en:40. X-Wing Attack01:41:29.958 : en:41. Rejoining Rey01:42:57.504 : en:42. Into The Oscillator01:45:00.002 : en:43. Father And Son01:50:33.710 : en:44. Dark Forest01:53:39.771 : en:45. Oscillator Breached01:55:22.165 : en:46. Forest Duel01:58:05.453 : en:47. Cataclysm02:01:05.591 : en:48. Made Whole02:02:32.678 : en:49. Finding The Master02:07:07.578 : en:50. End Credits
    Скриншоты

    Зеркало


    Цитата:
    Цитата:

    • Текст в заставке идет на русском, так что убрал его из субтитров.
    • Сохранены оригинальные чаптеры как на Blu-ray. Главы подписаны.
    • Украинская дорожка отдельно.
    • В озвучке от FocusStudio перевод делал Александр Митраков. Из дороги удалена реклама, за что спасибо [url=profile.php?mode=viewprofile&u=4557777]Panas[/url]. Также (специально для Руди) убран перевод титров в заставке, т.к. они идут на русском.
    Скачать .torrent

    Скачать торрент-файл бесплатно и на максимальной скорости!

    Как скачивать? · Что такое торрент? · Рейтинг и ограничения

    !ВНИМАНИЕ!
    Сайт не распространяет и не хранит электронные версии произведений, а занимается лишь лишь предоставлением доступа к создаваемому пользователями каталогу ссылок на торрент-файлы, которые содержат только списки хеш-сумм, убедительная просьба с жалобами обращаться напрямую к пользователю. Файлы для обмена на трекере предоставлены пользователями сайта, и администрация не несёт ответственности за их содержание. Просьба не заливать файлы, защищенные авторскими правами, а также файлы нелегального содержания!


    _________________
    [Профиль] [ЛС]
    Показать сообщения:    
    Ответить на тему

    Текущее время: Сегодня, в 18:04

    Часовой пояс: GMT + 2



    Вы не можете начинать темы
    Вы не можете отвечать на сообщения
    Вы не можете редактировать свои сообщения
    Вы не можете удалять свои сообщения
    Вы не можете голосовать в опросах
    Вы не можете прикреплять файлы к сообщениям
    Вы не можете скачивать файлы