BitTorrentTracker PerecTracker.org
BitTorrentTracker PerecTracker.org
    
Регистрация  ·  Вход
 
 · 
Забыли пароль?

  • Адмирал / Михил Де Рюйтер / Michiel de Ruyter (Роэль Рейн / Roel Reiné) [2015, Нидерланды, боевик, биография, история, BDRip 720p] AVO (Ю.Сербин) + DVO + VO + Sub Rus, Eng, Dut + Original Dut

    Ответить на тему
     
    Автор Сообщение

    Light

    Создавать темы 25-Апр-2016 19:29

           

    [Цитировать]

    Адмирал / Михил Де Рюйтер / Michiel de Ruyter
    Страна: Нидерланды
    Жанр: боевик, биография, история
    Год выпуска: 2015
    Продолжительность: 02:31:53
    Перевод 1: Авторский (одноголосый закадровый) Ю.Сербин
    Перевод 2: Любительский (двухголосый закадровый) Lucky Strike
    Перевод 3: Любительский (одноголосый закадровый) Денис Квинт
    Оригинальная аудиодорожка: нидерландский
    Cубтитры: русские, англиские, голландские--Режиссер: Роэль Рейн / Roel Reiné--В ролях: Франк Ламерс, Барри Атсма, Рёланд Фернхут, Эгберт Ян Вебер, Тиго Гернандт, Дерек де Линт, Хайо Брюинс, Жуль Кройсет...--Описание: Михил Рюйтер был одним из самых главных новаторов в боевой технике. Он стал героем голландского флота. В то время как Голландию, находившуюся на грани гражданской войны, атаковали со всех сторон, лишь один человек пытался бороться за интересы страны - Михаил Рюйтер. Но в глазах власть имущих его успехи делали его слишком популярным, и Рюйтера отправили на смертельно опасное задание…--Доп. информация: | IMDB | КиноПоиск | Сэмпл |--Тип релиза: BDRip 720p
    Контейнер: MKV
    Видео: AVC, 1280x538 (2.40:1), 24.000 fps, 4 433 Kbps
    Аудио 1: AC3 Dolby Digital, 3/2 (L,C,R,l,r) + LFE ch, 48 kHz, 640 kbps | AVO
    Аудио 2: AC3 Dolby Digital, 2/0 (L,R) ch, 48 kHz, 192 kbps | DVO
    Аудио 3: AC3 Dolby Digital, 2/0 (L,R) ch, 48 kHz, 192 kbps | VO
    Аудио 4: AC3 Dolby Digital, 3/2 (L,C,R,l,r) + LFE ch, 48 kHz, 640 kbps | Original
    Формат субтитров: softsub (SRT)

    MediaInfo

    General
    Unique ID : 208213676721077314686564039866037997666 (0x9CA47ED7F61ACFDD9BDFA34881929062)
    Complete name : Michiel de Ruyter.2015.mkv
    Format : Matroska
    Format version : Version 4 / Version 2
    File size : 6.47 GiB
    Duration : 2h 32mn
    Overall bit rate : 6 092 Kbps
    Movie name : Адмирал / Михил Де Рюйтер / Michiel de Ruyter (2015)
    Encoded date : UTC 2016-04-24 18:19:02
    Writing application : mkvmerge v8.1.0 ('Psychedelic Postcard') 64bit
    Writing library : libebml v1.3.1 + libmatroska v1.4.2
    Cover : Yes
    Attachments : cover.jpg
    Video
    ID : 1
    Format : AVC
    Format/Info : Advanced Video Codec
    Format profile : High@L4.1
    Format settings, CABAC : Yes
    Format settings, ReFrames : 12 frames
    Codec ID : V_MPEG4/ISO/AVC
    Duration : 2h 31mn
    Bit rate : 4 433 Kbps
    Width : 1 280 pixels
    Height : 538 pixels
    Display aspect ratio : 2.40:1
    Frame rate mode : Constant
    Frame rate : 24.000 fps
    Color space : YUV
    Chroma subsampling : 4:2:0
    Bit depth : 8 bits
    Scan type : Progressive
    Bits/(Pixel*Frame) : 0.268
    Stream size : 4.70 GiB (73%)
    Title : Michiel de Ruyter (2015)
    Writing library : x264 core 146 r0+2586 e393126 t_mod_Custom [8-bit@all X86_64]
    Encoding settings : cabac=1 / ref=12 / deblock=1:-3:-3 / analyse=0x3:0x133 / me=umh / subme=10 / psy=1 / fade_compensate=0.00 / psy_rd=1.05:0.00 / mixed_ref=1 / me_range=32 / chroma_me=1 / trellis=2 / 8x8dct=1 / cqm=0 / deadzone=21,11 / fast_pskip=0 / chroma_qp_offset=-2 / threads=6 / lookahead_threads=1 / sliced_threads=0 / nr=0 / decimate=0 / interlaced=0 / bluray_compat=0 / constrained_intra=0 / fgo=0 / bframes=7 / b_pyramid=2 / b_adapt=2 / b_bias=0 / direct=3 / weightb=1 / open_gop=0 / weightp=2 / keyint=250 / keyint_min=24 / scenecut=40 / intra_refresh=0 / rc_lookahead=60 / rc=crf / mbtree=0 / crf=16.0000 / qcomp=0.60 / qpmin=0:0:0 / qpmax=69:69:69 / qpstep=4 / vbv_maxrate=62500 / vbv_bufsize=78125 / crf_max=0.0 / nal_hrd=none / filler=0 / ip_ratio=1.30 / pb_ratio=1.20 / aq=1:1.00 / aq-sensitivity=10.00 / aq-factor=1.00:1.00:1.00 / aq2=0 / aq3=0
    Language : English
    Default : Yes
    Forced : No
    Audio #1
    ID : 2
    Format : AC-3
    Format/Info : Audio Coding 3
    Mode extension : CM (complete main)
    Format settings, Endianness : Big
    Codec ID : A_AC3
    Duration : 2h 31mn
    Bit rate mode : Constant
    Bit rate : 640 Kbps
    Channel(s) : 6 channels
    Channel positions : Front: L C R, Side: L R, LFE
    Sampling rate : 48.0 KHz
    Frame rate : 31.250 fps (1536 spf)
    Compression mode : Lossy
    Stream size : 695 MiB (10%)
    Title : AVO (Ю. Сербин)
    Language : Russian
    Default : Yes
    Forced : No
    Audio #2
    ID : 3
    Format : AC-3
    Format/Info : Audio Coding 3
    Mode extension : CM (complete main)
    Format settings, Endianness : Big
    Codec ID : A_AC3
    Duration : 2h 31mn
    Bit rate mode : Constant
    Bit rate : 192 Kbps
    Channel(s) : 2 channels
    Channel positions : Front: L R
    Sampling rate : 48.0 KHz
    Frame rate : 31.250 fps (1536 spf)
    Compression mode : Lossy
    Stream size : 209 MiB (3%)
    Title : DVO (Lucky Strike)
    Language : Russian
    Default : No
    Forced : No
    Audio #3
    ID : 4
    Format : AC-3
    Format/Info : Audio Coding 3
    Mode extension : CM (complete main)
    Format settings, Endianness : Big
    Codec ID : A_AC3
    Duration : 2h 32mn
    Bit rate mode : Constant
    Bit rate : 192 Kbps
    Channel(s) : 2 channels
    Channel positions : Front: L R
    Sampling rate : 48.0 KHz
    Frame rate : 31.250 fps (1536 spf)
    Compression mode : Lossy
    Stream size : 209 MiB (3%)
    Title : VO (Денис Квинт)
    Language : Russian
    Default : No
    Forced : No
    Audio #4
    ID : 5
    Format : AC-3
    Format/Info : Audio Coding 3
    Mode extension : CM (complete main)
    Format settings, Endianness : Big
    Codec ID : A_AC3
    Duration : 2h 31mn
    Bit rate mode : Constant
    Bit rate : 640 Kbps
    Channel(s) : 6 channels
    Channel positions : Front: L C R, Side: L R, LFE
    Sampling rate : 48.0 KHz
    Frame rate : 31.250 fps (1536 spf)
    Compression mode : Lossy
    Stream size : 695 MiB (10%)
    Title : Original
    Language : Dutch
    Default : No
    Forced : No
    Text #1
    ID : 6
    Format : UTF-8
    Codec ID : S_TEXT/UTF8
    Codec ID/Info : UTF-8 Plain Text
    Duration : 2h 22mn
    Bit rate : 66 bps
    Count of elements : 1090
    Stream size : 69.3 KiB (0%)
    Language : Russian
    Default : No
    Forced : No
    Text #2
    ID : 7
    Format : UTF-8
    Codec ID : S_TEXT/UTF8
    Codec ID/Info : UTF-8 Plain Text
    Duration : 2h 20mn
    Bit rate : 33 bps
    Count of elements : 959
    Stream size : 34.5 KiB (0%)
    Language : English
    Default : No
    Forced : No
    Text #3
    ID : 8
    Format : UTF-8
    Codec ID : S_TEXT/UTF8
    Codec ID/Info : UTF-8 Plain Text
    Duration : 2h 14mn
    Bit rate : 4 bps
    Count of elements : 152
    Stream size : 4.87 KiB (0%)
    Language : Dutch
    Default : No
    Forced : No
    Menu
    00:00:00.000 : en:00:00:00.000
    00:15:20.708 : en:00:15:20.708
    00:32:30.875 : en:00:32:30.875
    00:49:20.875 : en:00:49:20.875
    00:59:50.667 : en:00:59:50.667
    01:19:50.417 : en:01:19:50.417
    01:39:18.792 : en:01:39:18.792
    01:55:04.667 : en:01:55:04.667
    02:10:07.500 : en:02:10:07.500

    Скриншоты

    Скачать .torrent

    Скачать торрент-файл бесплатно и на максимальной скорости!

    Как скачивать? · Что такое торрент? · Рейтинг и ограничения

    !ВНИМАНИЕ!
    Сайт не распространяет и не хранит электронные версии произведений, а занимается лишь лишь предоставлением доступа к создаваемому пользователями каталогу ссылок на торрент-файлы, которые содержат только списки хеш-сумм, убедительная просьба с жалобами обращаться напрямую к пользователю. Файлы для обмена на трекере предоставлены пользователями сайта, и администрация не несёт ответственности за их содержание. Просьба не заливать файлы, защищенные авторскими правами, а также файлы нелегального содержания!


    _________________
    [Профиль] [ЛС]
    Показать сообщения:    
    Ответить на тему

    Текущее время: Сегодня, в 08:16

    Часовой пояс: GMT + 2



    Вы не можете начинать темы
    Вы не можете отвечать на сообщения
    Вы не можете редактировать свои сообщения
    Вы не можете удалять свои сообщения
    Вы не можете голосовать в опросах
    Вы не можете прикреплять файлы к сообщениям
    Вы не можете скачивать файлы