BitTorrentTracker PerecTracker.org
BitTorrentTracker PerecTracker.org
    
Регистрация  ·  Вход
 
 · 
Забыли пароль?

  • Мой слон Лаки / Мой счастливый слон / My Lucky Elephant (Эрик Шваб / Eric Schwab) [2013, США, Таиланд, приключения, семейный, DVDRip] sub ENG, RUS (adamovna)

    Ответить на тему
     
    Автор Сообщение

    Light

    Создавать темы 25-Апр-2016 19:29

           

    [Цитировать]

    ~ Мой слон Лаки / My Lucky Elephant ~--Страна:США, Таиланд
    Жанр: Приключения, семейный
    Продолжительность: 01:31:33
    Год выпуска: 2013
    Перевод: : субтитры
    Оригинальная аудиодорожка: английский
    Субтитры: английские, русские (adamovna)-Режиссёр: Эрик Шваб / Eric Schwab-В ролях: First Khunchan, Thanyarat Praditthaen, Charlie Sungkawess, Georges Levillain, Rees Chamberlain, Robert A. Force, Jean Jacques Velicitat-Описание:
    В далекой стране, где в джунглях обитали дикие звери, жил-был маленький мальчик-сирота, у которого не было ни дома, ни семьи. Однажды в лесу он повстречал очень юного слона, который также остался один-одинешенек. Мальчик назвал его Лаки - "Счастливчик", веря, что это принесет им удачу. Так началась история их дружбы и скитаний в поисках средств к существованию. Мальчик и слон вместе переживали невзгоды, встречали и приветливых и недобрых, корыстолюбивых людей, но, большей частью, никому не было дела до этих двух неприкаянных существ. В конце концов, они попадают в школу живописи, где учат рисовать... слонов, ведь это приносит неплохой доход владельцу. Совершенно неожиданно Лаки становится здесь звездой живописи и знаменитостью. Наконец-то жизнь наладилась, вдоволь имеется еды и денег... Но когда Лаки находит себе подругу, очаровательную и талантливую Кэнди, он хочет жить с ней на воле, а что же станет с мальчиком, его другом и хозяином, сумеет ли он обрести дом и семью?..
    --Доп. информация:
    IMDb: 7,8 (65) СЭМПЛ 1 http://multi-up.com/1099086 Английские субтитры: https://yadi.sk/d/YG7Qt3_7rH4Dw--Качество: DVDRip
    Формат: AVI
    Видео: XviD, 1 928 Kbps, 720 x 400, 16:9, 23.976 fps
    Аудио: AC3, 2 ch, 192 kbps, 48 kHz | original English -

    MediaInfo

    General
    Complete name : My Lucky Elephant (2013).avi
    Format : AVI
    Format/Info : Audio Video Interleave
    File size : 1.36 GiB
    Duration : 1h 31mn
    Overall bit rate : 2 129 Kbps
    Writing application : VirtualDubMod 1.5.10.3 | www.virtualdub-fr.org || (build 2550/release)
    Writing library : VirtualDubMod build 2550/release
    Video #0
    ID : 0
    Format : MPEG-4 Visual
    Format profile : Advanced Simple@L5
    Format settings, BVOP : 2
    Format settings, QPel : No
    Format settings, GMC : No warppoints
    Format settings, Matrix : Custom
    Codec ID : XVID
    Codec ID/Hint : XviD
    Duration : 1h 31mn
    Bit rate : 1 928 Kbps
    Width : 720 pixels
    Height : 400 pixels
    Display aspect ratio : 16:9
    Frame rate : 23.976 fps
    Color space : YUV
    Chroma subsampling : 4:2:0
    Bit depth : 8 bits
    Scan type : Progressive
    Compression mode : Lossy
    Bits/(Pixel*Frame) : 0.279
    Stream size : 1.23 GiB (91%)
    Writing library : XviD 64
    Audio #1
    ID : 1
    Format : AC-3
    Format/Info : Audio Coding 3
    Mode extension : CM (complete main)
    Codec ID : 2000
    Duration : 1h 31mn
    Bit rate mode : Constant
    Bit rate : 192 Kbps
    Channel(s) : 2 channels
    Channel positions : Front: L R
    Sampling rate : 48.0 KHz
    Bit depth : 16 bits
    Compression mode : Lossy
    Stream size : 126 MiB (9%)
    Alignment : Split accross interleaves
    Interleave, duration : 42 ms (1.00 video frame)
    Interleave, preload duration : 500 ms

    Скриншоты



    dvd covers


    фрагмент субтитров

    250
    00:39:39,292 --> 00:39:40,293
    Давай, давай!
    251
    00:39:40,293 --> 00:39:42,261
    Идите сюда, сюда.
    252
    00:39:42,261 --> 00:39:43,713
    Сюда!
    253
    00:39:55,775 --> 00:39:56,642
    У него такая рана.
    254
    00:39:56,893 --> 00:39:59,695
    А мой друг как раз доктор.
    255
    00:39:59,695 --> 00:40:01,063
    Правда?
    256
    00:40:01,063 --> 00:40:02,615
    Да.
    257
    00:40:05,117 --> 00:40:07,069
    Дай-ка я взгляну.
    258
    00:40:08,070 --> 00:40:09,989
    О... ты же не хочешь,
    259
    00:40:09,989 --> 00:40:12,458
    чтобы он заболел и умер, нет?
    260
    00:40:12,458 --> 00:40:13,960
    Нет.
    261
    00:40:14,377 --> 00:40:16,746
    Тогда следуй за нами.
    262
    00:40:18,080 --> 00:40:19,382
    Идем.
    263
    00:40:19,715 --> 00:40:20,967
    Идем.
    264
    00:40:21,918 --> 00:40:23,302
    Пойдем, Лаки.
    265
    00:40:30,176 --> 00:40:33,512
    Вот, ешь. Ты, видно, голоден?
    266
    00:40:45,274 --> 00:40:48,444
    А с Лаки будет все в порядке?
    267
    00:40:48,945 --> 00:40:50,246
    Будет, как новенький.
    268
    00:40:59,705 --> 00:41:01,207
    Вы уверены?
    269
    00:41:01,207 --> 00:41:04,176
    Я это делал много лет.
    270
    00:41:07,463 --> 00:41:08,881
    Давай оставим твоего Лаки там,
    271
    00:41:08,881 --> 00:41:10,883
    где полиция до вас не доберется.
    Скачать .torrent

    Скачать торрент-файл бесплатно и на максимальной скорости!

    Как скачивать? · Что такое торрент? · Рейтинг и ограничения

    !ВНИМАНИЕ!
    Сайт не распространяет и не хранит электронные версии произведений, а занимается лишь лишь предоставлением доступа к создаваемому пользователями каталогу ссылок на торрент-файлы, которые содержат только списки хеш-сумм, убедительная просьба с жалобами обращаться напрямую к пользователю. Файлы для обмена на трекере предоставлены пользователями сайта, и администрация не несёт ответственности за их содержание. Просьба не заливать файлы, защищенные авторскими правами, а также файлы нелегального содержания!


    _________________
    [Профиль] [ЛС]
    Показать сообщения:    
    Ответить на тему

    Текущее время: Сегодня, в 13:41

    Часовой пояс: GMT + 2



    Вы не можете начинать темы
    Вы не можете отвечать на сообщения
    Вы не можете редактировать свои сообщения
    Вы не можете удалять свои сообщения
    Вы не можете голосовать в опросах
    Вы не можете прикреплять файлы к сообщениям
    Вы не можете скачивать файлы