BitTorrentTracker PerecTracker.org
BitTorrentTracker PerecTracker.org
    
Регистрация  ·  Вход
 
 · 
Забыли пароль?

  • Герой (Юрий Васильев) [2016, Россия, драма, военный, WEB-DLRip-AVC]

    Ответить на тему
     
    Автор Сообщение

    Flirldrerve

    Создавать темы 25-Апр-2016 15:25

           

    [Цитировать]

    Герой
    «С верой за Россию»

    Страна: Россия
    Жанр: драма, военный
    Год выпуска: 2016
    Продолжительность: 01:16:08
    Перевод: Не требуется (русский)
    Cубтитры: нет
    Режиссер: Юрий Васильев
    В ролях: Дима Билан, Светлана Иванова, Александр Балуев, Татьяна Лютаева, Юлия Пересильд, Александр Головин, Марат Башаров, Александр Адабашьян, Лилита Озолиня, Александр Васильев, Владислав Ветров, Юргита Юркуте
    Описание:
    Начало ХХ века. Юная княжна Вера Чернышева и поручик Андрей Долматов знакомятся при весьма странных обстоятельствах. Симпатия, любовь... впереди, казалось, счастливая жизнь. И вдруг - катастрофа. Первая мировая война уводит его на фронт, а ее - медсестрой в госпиталь. Мир перевернулся, он охвачен ненавистью, злобой, жаждой власти. Одна война сменяет другую. Люди делятся на два враждующих лагеря, начинают судить друг друга, чинить жестокую расправу. Огонь времени губит все на своем пути, но любовь - бессмертна, она соединяет несколько поколений и напоминает о себе спустя сто лет.
    Автор рипа: Stalker oK
    Сэмпл
    Качество видео: WEB-DLRip-AVC [BLUEBIRD / WEB-DL / 1080p]
    Формат видео: MKV
    Видео кодек: AVC
    Аудио кодек: AC3
    Видео: 1655 Кбит/сек, 972x408 (2.40:1), 25 кадр/сек, AVC
    Аудио: русский, 384 Кбит/сек, 48 КГц, 16 бит, 5.1, AC3 [iTunes]
    Навигация по главам: есть

    MediaInfo

    Общее
    Уникальный идентификатор : 230274798156236385649194357997027562439 (0xAD3D501B91E06BDA90C50D0E033993C7)
    Полное имя : M:\1Rips\Geroj\Geroj.2016.WEB-DLRip-AVC.1.09Gb.stalkerok.new-team.mkv
    Формат : Matroska
    Версия формата : Version 4 / Version 2
    Размер файла : 1,09 Гбайт
    Продолжительность : 1 ч. 16 м.
    Общий поток : 2041 Кбит/сек
    Название фильма : Герой (2016) (New-Team) (Rip by Stalker oK)
    Дата кодирования : UTC 2016-04-25 11:09:12
    Программа кодирования : mkvmerge v8.6.1 ('Flying') 64bit
    Библиотека кодирования : libebml v1.3.3 + libmatroska v1.4.4
    Видео
    Идентификатор : 1
    Формат : AVC
    Формат/Информация : Advanced Video Codec
    Профиль формата : High@L4.1
    Параметр CABAC формата : Да
    Параметр ReFrames формата : 14 кадров
    Идентификатор кодека : V_MPEG4/ISO/AVC
    Продолжительность : 1 ч. 16 м.
    Битрейт : 1655 Кбит/сек
    Ширина : 972 пикселя
    Высота : 408 пикселей
    Соотношение сторон : 2,40:1
    Режим частоты кадров : Постоянный
    Частота кадров : 25,000 кадров/сек
    Цветовое пространство : YUV
    Субдискретизация насыщенности : 4:2:0
    Битовая глубина : 8 бит
    Тип развёртки : Прогрессивная
    Бит/(Пиксели*Кадры) : 0.167
    Размер потока : 901 Мбайт (81%)
    Заголовок : Герой (2016) (New-Team) (Rip by Stalker oK)
    Библиотека кодирования : x264 core 148 r2665kMod a01e339
    Настройки программы : cabac=1 / ref=14 / deblock=1:-3:-2 / analyse=0x3:0x133 / me=umh / subme=11 / psy=1 / fade_compensate=0.00 / psy_rd=1.00:0.05 / mixed_ref=1 / me_range=48 / chroma_me=1 / trellis=2 / 8x8dct=1 / cqm=0 / deadzone=21,11 / fast_pskip=0 / chroma_qp_offset=-3 / threads=12 / lookahead_threads=3 / sliced_threads=0 / nr=0 / decimate=0 / interlaced=0 / bluray_compat=0 / constrained_intra=0 / fgo=0 / bframes=14 / b_pyramid=2 / b_adapt=2 / b_bias=0 / direct=3 / weightb=1 / open_gop=0 / weightp=2 / keyint=250 / keyint_min=25 / scenecut=40 / intra_refresh=0 / rc_lookahead=60 / rc=2pass / mbtree=0 / bitrate=1655 / ratetol=1.0 / qcomp=0.70 / qpmin=0 / qpmax=69 / qpstep=4 / cplxblur=20.0 / qblur=0.5 / vbv_maxrate=50000 / vbv_bufsize=62500 / nal_hrd=none / filler=0 / ip_ratio=1.40 / pb_ratio=1.30 / aq=3:0.90
    Default : Да
    Forced : Нет
    Аудио
    Идентификатор : 2
    Формат : AC-3
    Формат/Информация : Audio Coding 3
    Расширение режима : CM (complete main)
    Параметр Endianness формата : Big
    Идентификатор кодека : A_AC3
    Продолжительность : 1 ч. 16 м.
    Вид битрейта : Постоянный
    Битрейт : 384 Кбит/сек
    Каналы : 6 каналов
    Расположение каналов : Front: L C R, Side: L R, LFE
    Частота : 48,0 КГц
    Частота кадров : 31,250 кадров/сек (1536 spf)
    Метод сжатия : С потерями
    Размер потока : 209 Мбайт (19%)
    Заголовок : DD 5.1 @ 384 kbps - iTunes
    Язык : Russian
    Default : Да
    Forced : Нет
    Меню
    00:00:00.000 : en:Глава 1
    00:05:29.000 : en:Глава 2
    00:10:44.000 : en:Глава 3
    00:17:46.000 : en:Глава 4
    00:23:05.000 : en:Глава 5
    00:29:18.000 : en:Глава 6
    00:35:00.000 : en:Глава 7
    00:40:57.000 : en:Глава 8
    00:48:50.000 : en:Глава 9
    00:54:16.000 : en:Глава 10
    00:59:43.000 : en:Глава 11
    01:06:04.000 : en:Глава 12

    Скриншоты

    Скачать .torrent

    Скачать торрент-файл бесплатно и на максимальной скорости!

    Как скачивать? · Что такое торрент? · Рейтинг и ограничения

    !ВНИМАНИЕ!
    Сайт не распространяет и не хранит электронные версии произведений, а занимается лишь лишь предоставлением доступа к создаваемому пользователями каталогу ссылок на торрент-файлы, которые содержат только списки хеш-сумм, убедительная просьба с жалобами обращаться напрямую к пользователю. Файлы для обмена на трекере предоставлены пользователями сайта, и администрация не несёт ответственности за их содержание. Просьба не заливать файлы, защищенные авторскими правами, а также файлы нелегального содержания!


    _________________
    [Профиль] [ЛС]
    Показать сообщения:    
    Ответить на тему

    Текущее время: Сегодня, в 00:25

    Часовой пояс: GMT + 2



    Вы не можете начинать темы
    Вы не можете отвечать на сообщения
    Вы не можете редактировать свои сообщения
    Вы не можете удалять свои сообщения
    Вы не можете голосовать в опросах
    Вы не можете прикреплять файлы к сообщениям
    Вы не можете скачивать файлы