BitTorrentTracker PerecTracker.org
BitTorrentTracker PerecTracker.org
    
Регистрация  ·  Вход
 
 · 
Забыли пароль?

  • Дикий мёд / Delibal (Али Билгин / Ali Bilgin) [2015, Турция, Драма, мелодрама, WEBRip] VO (Kristina Filatova)

    Ответить на тему
     
    Автор Сообщение

    Light

    Создавать темы 25-Апр-2016 15:25

           

    [Цитировать]

    Дикий мёд / Delibal
    Страна: Турция, кинокомпания "Ay Yapım"
    Жанр: Драма, мелодрама
    Год выпуска: 2015
    Продолжительность: 01:52:30
    Перевод: Одноголосый закадровый (Кристина Филатова)
    Cубтитры: нет
    Оригинальная аудиодорожка: нет
    Режиссер: Али Билгин / Ali Bilgin
    В ролях: Чагатай Улусой, Лейла Лидия Тугутлу, Хусеин Авни Даньял, Мустафа Авкыран, Лочин Джейлан, Барыш Айтач, Эмре Караоглу, Назан Кесаль
    Описание: История страстной любви студентов университета Барыша и Фюсун. Барыш учится на факультете архитектуры в университете. Его хобби — игра на барабанах, от этого и от студенческой жизни он получает огромное удовольствие и наслаждение. Когда парень встречает Фюсун, его душа наполняется чувством, совершенно новым для него, подобного раньше Барыш не испытывал… Он понимает, что в этот раз настоящая любовь вошла в его сердце и в его жизнь. Кто эта девушка? Где она живет? Он должен найти ее, даже не зная имени незнакомки. Барыш ищет и находит, но у Фюсун есть только одно желание — закончить университет с отличием и продолжить обучение в Америке, получив степень магистра. Парень должен как-то добиться ее расположения. Красивый, умный и искренний Барыш успешен в этом направлении. Он умудряется добиться своего — Фюсун в него влюбляется, и они женятся.
    О релизе: Переведено и озвучено в группе ВКонтакте - Реальный Перевод | Студия перевода и озвучки. Релиз - shachter58.
    Сэмпл: http://multi-up.com/1099060
    Качество видео: WEBRip
    Формат видео: AVI
    Видео: MPEG-4 Visual, XviD, 1514 Кбит/с, 25.000 fps, 720x400 (16:9), Bits/(Pixel*Frame)-0.210
    Аудио: MPEG Audio, МР3, 2 channels, 44.1 KHz, 192 Kbps - Русский

    MediaInfo

    General
    Complete name: D:\Кино Турции\Dikiy.med.2015.rus.L1.WEBRip.avi
    Format: AVI
    Format/Info : Audio Video Interleave
    File size : 1.35 GiB
    Duration : 1h 52mn
    Overall bit rate : 1 716 Kbps
    Video
    ID : 0
    Format : MPEG-4 Visual
    Format profile : Advanced Simple@L5
    Format settings, BVOP : 2
    Format settings, QPel : No
    Format settings, GMC : No warppoints
    Format settings, Matrix : Default (H.263)
    Codec ID : XVID
    Codec ID/Hint : XviD
    Duration : 1h 52mn
    Bit rate : 1 514 Kbps
    Width : 720 pixels
    Height : 400 pixels
    Display aspect ratio : 16:9
    Frame rate : 25.000 fps
    Color space : YUV
    Chroma subsampling : 4:2:0
    Bit depth : 8 bits
    Scan type : Progressive
    Compression mode : Lossy
    Bits/(Pixel*Frame) : 0.210
    Stream size : 1.19 GiB (88%)
    Writing library : XviD 73
    Audio
    ID : 1
    Format : MPEG Audio
    Format version : Version 1
    Format profile : Layer 3
    Mode : Joint stereo
    Mode extension : MS Stereo
    Codec ID : 55
    Codec ID/Hint : MP3
    Duration : 1h 52mn
    Bit rate mode : Constant
    Bit rate : 192 Kbps
    Channel(s) : 2 channels
    Sampling rate : 44.1 KHz
    Compression mode : Lossy
    Stream size : 155 MiB (11%)
    Alignment : Split accross interleaves
    Interleave, duration : 40 ms (1.00 video frame)
    Interleave, preload duration : 500 ms
    Writing library : LAME3.99.5

    Скриншот c названием фильма

    Скриншоты





    Скачать .torrent

    Скачать торрент-файл бесплатно и на максимальной скорости!

    Как скачивать? · Что такое торрент? · Рейтинг и ограничения

    !ВНИМАНИЕ!
    Сайт не распространяет и не хранит электронные версии произведений, а занимается лишь лишь предоставлением доступа к создаваемому пользователями каталогу ссылок на торрент-файлы, которые содержат только списки хеш-сумм, убедительная просьба с жалобами обращаться напрямую к пользователю. Файлы для обмена на трекере предоставлены пользователями сайта, и администрация не несёт ответственности за их содержание. Просьба не заливать файлы, защищенные авторскими правами, а также файлы нелегального содержания!


    _________________
    [Профиль] [ЛС]
    Показать сообщения:    
    Ответить на тему

    Текущее время: Сегодня, в 00:30

    Часовой пояс: GMT + 2



    Вы не можете начинать темы
    Вы не можете отвечать на сообщения
    Вы не можете редактировать свои сообщения
    Вы не можете удалять свои сообщения
    Вы не можете голосовать в опросах
    Вы не можете прикреплять файлы к сообщениям
    Вы не можете скачивать файлы