Register  ·  Log in
Forgot password?

  • Убей своих друзей / Kill Your Friends (Оуэн Харрис / Owen Harris) [2015, Великобритания, Триллер, комедия, криминал, HDRip] Dub (iTunes)

    Reply to topic
    Author Message


    Post 25-Apr-2016 12:17



    Убей своих друзей / Kill Your Friends

    «Lies. Betrayal. Murder. Just another day at the office»
    -Страна: Великобритания
    Жанр: Триллер, комедия, криминал
    Год выпуска: 2015
    Продолжительность: 01:43:53-Перевод: Профессиональный (дублированный) - iTunes
    Cубтитры: нет-Режиссер: Оуэн Харрис / Owen Harris-В ролях: Николас Холт, Джеймс Корден, Джорджия Кинг, Крэйг Робертс, Джим Пиддок, Джозеф Моул, Дастин Демри-Бёрнс, Дэмиен Молони, Бронсон Уэбб, Элла Смит-Описание: Знакомьтесь, Стивен Стелфокс — менеджер по поиску талантов в звукозаписывающей студии. Наполненный жадностью и тщеславием, Стелфокс весело колесит по всему земному шару в поисках молодых талантов. Но как только хиты заканчиваются и индустрия начинает меняться, Стелфоксу ничего больше не остается, как сыграть по правилам жестокого бизнеса, чтобы добраться к вершинам и спасти свою карьеру…- l -Качество видео: HDRip (Исходник неизвестен)
    Формат видео: AVI
    Видео: 720х304 (2.35:1), 24.000 fps, XviD build, 1498 Kbps, 0.28 bit/pixel
    Аудио: 48 kHz, AC3 Dolby Digital, 3/2 (L,C,R,l,r) + LFE ch, ~384.00 kbps


    Complete name : Downloads\UbeY.DruZeY.2O16.D.HDRip.14OOMB.avi
    Format : AVI
    Format/Info : Audio Video Interleave
    File size : 1.37 GiB
    Duration : 1h 43mn
    Overall bit rate : 1 891 Kbps
    Writing application : VirtualDubMod (build 2540/release)
    Writing library : VirtualDubMod build 2540/release
    Video #0
    ID : 0
    Format : MPEG-4 Visual
    Format profile : Advanced Simple@L5
    Format settings, BVOP : 2
    Format settings, QPel : No
    Format settings, GMC : No warppoints
    Format settings, Matrix : Default (MPEG)
    Codec ID : XVID
    Codec ID/Hint : XviD
    Duration : 1h 43mn
    Bit rate : 1 498 Kbps
    Width : 720 pixels
    Height : 304 pixels
    Display aspect ratio : 2.35:1
    Frame rate : 24.000 fps
    Color space : YUV
    Chroma subsampling : 4:2:0
    Bit depth : 8 bits
    Scan type : Progressive
    Compression mode : Lossy
    Bits/(Pixel*Frame) : 0.285
    Stream size : 1.08 GiB (79%)
    Writing library : XviD 1.2.1 (UTC 2008-12-04)
    Audio #1
    ID : 1
    Format : AC-3
    Format/Info : Audio Coding 3
    Mode extension : CM (complete main)
    Format settings, Endianness : Big
    Codec ID : 2000
    Duration : 1h 43mn
    Bit rate mode : Constant
    Bit rate : 384 Kbps
    Channel(s) : 6 channels
    Channel positions : Front: L C R, Side: L R, LFE
    Sampling rate : 48.0 KHz
    Bit depth : 16 bits
    Compression mode : Lossy
    Stream size : 284 MiB (20%)
    Alignment : Split accross interleaves
    Interleave, duration : 42 ms (1.00 video frame)
    Interleave, preload duration : 500 ms

    Скриншот c названием фильма


    Download .torrent

    Download free and at maximum speed!

    How to Download? · What is a torrent? · Ratings and Limitations

    The site does not extend and does not store electronic(digital) versions of products, and only gives access to a reference catalogue created by users on torrent-files which contain only lists of the hash-sums, the earnest entreaty, with complaints(abuse) to access directly to the user. Files for an exchange on tracker are given by users of a site, and the administration does not bear the responsibility for their maintenance. The request to not fill in the files protected by copyrights, and also files of the illegal maintenance!

    [Profile] [PM]
    Display posts from previous:    
    Reply to topic

    The time now is: Today 19:12

    All times are GMT + 3 Hours

    You cannot post new topics in this forum
    You cannot reply to topics in this forum
    You cannot edit your posts in this forum
    You cannot delete your posts in this forum
    You cannot vote in polls in this forum
    You cannot attach files in this forum
    You cannot download files in this forum