BitTorrentTracker PerecTracker.org
BitTorrentTracker PerecTracker.org
    
Регистрация  ·  Вход
 
 · 
Забыли пароль?

  • Убей своих друзей / Kill Your Friends (Оуэн Харрис / Owen Harris) [2015, Великобритания, триллер, комедия, криминал, BDRip-AVC] Dub

    Ответить на тему
     
    Автор Сообщение

    Light

    Создавать темы 25-Апр-2016 11:17

           

    [Цитировать]

    Убей своих друзей / Kill Your Friends
    «Lies. Betrayal. Murder. Just another day at the office»
    -Страна: Великобритания
    Жанр: триллер, комедия, криминал
    Год выпуска: 2015
    Продолжительность: 01:43:29
    Перевод : Профессиональный (полное дублирование) (iTunes)
    Навигация по главам: есть
    Cубтитры: нет
    Режиссер: Оуэн Харрис / Owen Harris
    В ролях: Николас Холт, Джеймс Корден, Джорджия Кинг, Крэйг Робертс, Джим Пиддок, Джозеф Моул, Дастин Демри-Бёрнс, Дэмиен Молони, Бронсон Уэбб, Элла Смит
    Описание: Знакомьтесь, Стивен Стелфокс — менеджер по поиску талантов в звукозаписывающей студии. Наполненный жадностью и тщеславием, Стелфокс весело колесит по всему земному шару в поисках молодых талантов. Но как только хиты заканчиваются и индустрия начинает меняться, Стелфоксу ничего больше не остается, как сыграть по правилам жестокого бизнеса, чтобы добраться к вершинам и спасти свою карьеру…

    Качество видео: BDRip-AVC (исходник - BDRemux|Kill.Your.Friends.2015.BluRay.1080p.DTS-HD.MA.5.1.AVC.REMUX-FraMeSToR)
    Формат видео: MKV
    Видео: x264, 1024x428 (2,40:1), 23,976 fps, ~1640 kbps, 0.156 bit/pixel
    Аудио: 48 kHz, AC3 Dolby Digital, 3/2 (L,C,R,l,r) + LFE ch, ~384 kbps
    MediaInfo | x264 log
    Format : Matroska
    Format version : Version 4 / Version 2
    File size : 1.46 GiB
    Duration : 1h 43mn
    Overall bit rate : 2 025 Kbps
    Movie name : Убей своих друзей / Kill Your Friends (2015) :: AFM ::
    Encoded date : UTC 2016-04-25 05:39:02
    Writing application : mkvmerge v8.3.0 ('Over the Horizon') 32bit
    Writing library : libebml v1.3.1 + libmatroska v1.4.2
    Video
    ID : 1
    Format : AVC
    Format/Info : Advanced Video Codec
    Format profile : High@L4.1
    Format settings, CABAC : Yes
    Format settings, ReFrames : 10 frames
    Codec ID : V_MPEG4/ISO/AVC
    Duration : 1h 43mn
    Bit rate : 1 640 Kbps
    Width : 1 024 pixels
    Height : 428 pixels
    Display aspect ratio : 2.40:1
    Frame rate mode : Constant
    Frame rate : 24.000 fps
    Color space : YUV
    Chroma subsampling : 4:2:0
    Bit depth : 8 bits
    Scan type : Progressive
    Bits/(Pixel*Frame) : 0.156
    Stream size : 1.16 GiB (79%)
    Title : BDRip by AFM [RuTracker.org]
    Writing library : x264 core 148 r2694 3b70645
    Encoding settings : cabac=1 / ref=10 / deblock=1:-2:-1 / analyse=0x3:0x113 / me=umh / subme=10 / psy=1 / psy_rd=1.00:0.00 / mixed_ref=1 / me_range=32 / chroma_me=1 / trellis=2 / 8x8dct=1 / cqm=0 / deadzone=21,11 / fast_pskip=0 / chroma_qp_offset=-2 / threads=6 / lookahead_threads=1 / sliced_threads=0 / nr=0 / decimate=0 / interlaced=0 / bluray_compat=0 / constrained_intra=0 / bframes=13 / b_pyramid=2 / b_adapt=2 / b_bias=0 / direct=3 / weightb=1 / open_gop=0 / weightp=2 / keyint=250 / keyint_min=23 / scenecut=40 / intra_refresh=0 / rc_lookahead=40 / rc=2pass / mbtree=0 / bitrate=1640 / ratetol=1.0 / qcomp=0.65 / qpmin=0 / qpmax=69 / qpstep=4 / cplxblur=20.0 / qblur=0.5 / vbv_maxrate=50000 / vbv_bufsize=62500 / nal_hrd=none / filler=0 / ip_ratio=1.35 / pb_ratio=1.30 / aq=1:0.90
    Language : English
    Default : Yes
    Forced : No
    Audio
    ID : 2
    Format : AC-3
    Format/Info : Audio Coding 3
    Mode extension : CM (complete main)
    Format settings, Endianness : Big
    Codec ID : A_AC3
    Duration : 1h 43mn
    Bit rate mode : Constant
    Bit rate : 384 Kbps
    Channel(s) : 6 channels
    Channel positions : Front: L C R, Side: L R, LFE
    Sampling rate : 48.0 KHz
    Compression mode : Lossy
    Stream size : 284 MiB (19%)
    Title : Dub, AC3 5.1 ~384 kbps
    Language : Russian
    Default : Yes
    Forced : No
    Menu
    00:00:00.000 : en:Chapter 1
    00:10:03.666 : en:Chapter 2
    00:19:33.666 : en:Chapter 3
    00:26:08.375 : en:Chapter 4
    00:34:31.125 : en:Chapter 5
    00:40:45.250 : en:Chapter 6
    00:50:45.458 : en:Chapter 7
    00:59:19.916 : en:Chapter 8
    01:07:56.708 : en:Chapter 9
    01:18:05.458 : en:Chapter 10
    01:27:24.791 : en:Chapter 11
    01:36:37.583 : en:Chapter 12

    x264

    x264 [info]: frame I:1380 Avg QP:15.47 size: 49498
    x264 [info]: frame P:29679 Avg QP:18.74 size: 18432
    x264 [info]: frame B:117959 Avg QP:20.06 size: 5567
    x264 [info]: consecutive B-frames: 1.9% 1.8% 6.1% 16.4% 13.2% 46.0% 4.9% 1.0% 2.1% 0.7% 1.8% 1.6% 1.5% 1.0%
    x264 [info]: mb I I16..4: 5.9% 78.9% 15.2%
    x264 [info]: mb P I16..4: 1.0% 9.2% 1.5% P16..4: 38.3% 28.6% 14.1% 0.0% 0.0% skip: 7.2%
    x264 [info]: mb B I16..4: 0.0% 0.4% 0.1% B16..8: 41.0% 11.8% 3.0% direct: 4.3% skip:39.4% L0:46.7% L1:45.2% BI: 8.1%
    x264 [info]: 8x8 transform intra:78.0% inter:62.0%
    x264 [info]: direct mvs spatial:97.8% temporal:2.2%
    x264 [info]: coded y,uvDC,uvAC intra: 88.6% 82.2% 58.2% inter: 23.2% 19.3% 6.5%
    x264 [info]: i16 v,h,dc,p: 30% 13% 6% 51%
    x264 [info]: i8 v,h,dc,ddl,ddr,vr,hd,vl,hu: 14% 7% 6% 10% 14% 15% 12% 12% 11%
    x264 [info]: i4 v,h,dc,ddl,ddr,vr,hd,vl,hu: 18% 6% 2% 9% 15% 16% 12% 12% 10%
    x264 [info]: i8c dc,h,v,p: 40% 20% 23% 17%
    x264 [info]: Weighted P-Frames: Y:3.9% UV:2.2%
    x264 [info]: ref P L0: 45.5% 9.5% 18.0% 6.7% 6.1% 4.0% 3.9% 2.0% 2.2% 1.9% 0.1% 0.0%
    x264 [info]: ref B L0: 66.2% 14.1% 7.5% 4.0% 2.8% 2.4% 1.9% 0.9% 0.3%
    x264 [info]: ref B L1: 92.5% 7.5%
    x264 [info]: kb/s:1638.85

    Скриншоты

    с названием

    Скачать .torrent

    Скачать торрент-файл бесплатно и на максимальной скорости!

    Как скачивать? · Что такое торрент? · Рейтинг и ограничения

    !ВНИМАНИЕ!
    Сайт не распространяет и не хранит электронные версии произведений, а занимается лишь лишь предоставлением доступа к создаваемому пользователями каталогу ссылок на торрент-файлы, которые содержат только списки хеш-сумм, убедительная просьба с жалобами обращаться напрямую к пользователю. Файлы для обмена на трекере предоставлены пользователями сайта, и администрация не несёт ответственности за их содержание. Просьба не заливать файлы, защищенные авторскими правами, а также файлы нелегального содержания!


    _________________
    [Профиль] [ЛС]
    Показать сообщения:    
    Ответить на тему

    Текущее время: Сегодня, в 18:58

    Часовой пояс: GMT + 2



    Вы не можете начинать темы
    Вы не можете отвечать на сообщения
    Вы не можете редактировать свои сообщения
    Вы не можете удалять свои сообщения
    Вы не можете голосовать в опросах
    Вы не можете прикреплять файлы к сообщениям
    Вы не можете скачивать файлы