BitTorrentTracker PerecTracker.org
BitTorrentTracker PerecTracker.org
    
Регистрация  ·  Вход
 
 · 
Забыли пароль?

  • Любопытный Джордж / Curious George (Мэттью О’Каллаган / Matthew O\'Callaghan) [2006, Мультфильм, комедия, приключения, семейный, BDRip] 2хDub + DVO + Original Eng + Sub (Rus, Eng)

    Ответить на тему
     
    Автор Сообщение

    Flirldrerve

    Создавать темы 25-Апр-2016 07:06

           

    [Цитировать]

    Любопытный Джордж / Curious George--Страна: США
    Жанр: Мультфильм, комедия, приключения, семейный
    Продолжительность: 01:27:19
    Год выпуска: 2006
    -Перевод: Профессиональный (дублированный) | Пифагор
    Перевод 2: Профессиональный (дублированный) | Дисней
    Перевод 3: Профессиональный (двухголосый, закадровый)
    Субтитры: русские (форсированные) + английские (полные, внешние, srt)
    Режиссёр: Мэттью О’Каллаган / Matthew O'Callaghan
    -В ролях:
    Фрэнк Уэлкер, Уилл Феррелл, Шэйн Баумель, Тамара Джо Битти, Юджин Леви, Кристофер Чен, Джесси Флауер, Дик Ван Дайк, Александр Гоулд, Терренс Харди мл.
    -Описание:
    Приключения Любопытного Джорджа, любознательной маленькой обезьянки с ненасытным голодом к приключениям. Природные мужественность и любовь к забавам приводит его к новым друзьям, но также и вовлекает в ряд не совсем хороших приключений…
    -Релиз групп All Films, RG Torrents.ru и RG Мультфильмы-Сэмпл: https://www.sendspace.com/file/qs5b5g-Качество: BDRip - Исходник (Спасибо -Azureus-)
    Формат: AVI
    Видео: 704x384 (1.83:1), 23.976 fps, XviD build 73 ~1801 kbps avg, 0.28 bit/pixel
    Аудио: 48 kHz, AC3 Dolby Digital, 3/2 (L,C,R,l,r) + LFE ch, ~384 kbps | Пифагор
    Аудио 2: 48 kHz, AC3 Dolby Digital, 2/0 (L,R) ch, ~192 kbps | Дисней
    Аудио 3: 48 kHz, AC3 Dolby Digital, 3/2 (L,C,R,l,r) + LFE ch, ~448 kbps | DVO (Отдельно)
    Аудио 4: 48 kHz, AC3 Dolby Digital, 3/2 (L,C,R,l,r) + LFE ch, ~448 kbps | Eng (Отдельно)
    -67058828- Большое спасибо [url=profile.php?mode=viewprofile&u=1793838]xfiles[/url] и [url=profile.php?mode=viewprofile&u=17572834]Lexa1988-L1[/url] за Дубляж от Дисней;
    - Работа с BDRemux'ом и звуком [url=profile.php?mode=viewprofile&u=6758562]-Azureus-[/url]
    -

    Отчёт MediaInfo

    General
    Complete name : C:\Users\Максим\Desktop\Мои релизы\Curious.George.2006.BDRip.polkera\Curious.George.2006.BDRip.polkera.avi
    Format : AVI
    Format/Info : Audio Video Interleave
    File size : 1.46 GiB
    Duration : 1h 27mn
    Overall bit rate : 2 392 Kbps
    Writing application : VirtualDubMod 1.5.10.3 | www.virtualdub-fr.org || (build 2550/release)
    Writing library : VirtualDubMod build 2550/release
    Video
    Format : MPEG-4 Visual
    Format profile : Streaming Video@L1
    Format settings, BVOP : Yes
    Format settings, QPel : No
    Format settings, GMC : No warppoints
    Format settings, Matrix : Custom
    Codec ID : XVID
    Codec ID/Hint : XviD
    Duration : 1h 27mn
    Bit rate : 1 802 Kbps
    Width : 704 pixels
    Height : 384 pixels
    Display aspect ratio : 16/9
    Frame rate : 23.976 fps
    Resolution : 24 bits
    Colorimetry : 4:2:0
    Scan type : Progressive
    Bits/(Pixel*Frame) : 0.278
    Stream size : 1.10 GiB (75%)
    Writing library : XviD 73
    Audio #1
    Format : AC-3
    Format/Info : Audio Coding 3
    Codec ID : 2000
    Duration : 1h 27mn
    Bit rate mode : Constant
    Bit rate : 384 Kbps
    Channel(s) : 6 channels
    Channel positions : Front: L C R, Surround: L R, LFE
    Sampling rate : 48.0 KHz
    Stream size : 240 MiB (16%)
    Alignment : Split accross interleaves
    Interleave, duration : 42 ms (1.00 video frame)
    Interleave, preload duration : 500 ms
    Audio #2
    Format : AC-3
    Format/Info : Audio Coding 3
    Codec ID : 2000
    Duration : 1h 27mn
    Bit rate mode : Constant
    Bit rate : 192 Kbps
    Channel(s) : 2 channels
    Channel positions : L R
    Sampling rate : 48.0 KHz
    Stream size : 120 MiB (8%)
    Alignment : Split accross interleaves
    Interleave, duration : 42 ms (1.00 video frame)
    Interleave, preload duration : 500 ms

    -

    Скриншоты

    -
    Скачать .torrent

    Скачать торрент-файл бесплатно и на максимальной скорости!

    Как скачивать? · Что такое торрент? · Рейтинг и ограничения

    !ВНИМАНИЕ!
    Сайт не распространяет и не хранит электронные версии произведений, а занимается лишь лишь предоставлением доступа к создаваемому пользователями каталогу ссылок на торрент-файлы, которые содержат только списки хеш-сумм, убедительная просьба с жалобами обращаться напрямую к пользователю. Файлы для обмена на трекере предоставлены пользователями сайта, и администрация не несёт ответственности за их содержание. Просьба не заливать файлы, защищенные авторскими правами, а также файлы нелегального содержания!


    _________________
    [Профиль] [ЛС]
    Показать сообщения:    
    Ответить на тему

    Текущее время: Сегодня, в 09:57

    Часовой пояс: GMT + 2



    Вы не можете начинать темы
    Вы не можете отвечать на сообщения
    Вы не можете редактировать свои сообщения
    Вы не можете удалять свои сообщения
    Вы не можете голосовать в опросах
    Вы не можете прикреплять файлы к сообщениям
    Вы не можете скачивать файлы