BitTorrentTracker PerecTracker.org
BitTorrentTracker PerecTracker.org
    
Регистрация  ·  Вход
 
 · 
Забыли пароль?

  • Королевство / The Kingdom (Питер Берг / Peter Berg) [2007, США, Германия, боевик, триллер, драма, HDTV 1080i] [Open Matte] Dub (R5) + MVO (1 канал) + AVOx3 + Sub Rus + Sub Eng + Original Eng

    Ответить на тему
     
    Автор Сообщение

    Light

    Создавать темы 25-Апр-2016 03:05

           

    [Цитировать]

    Королевство / The Kingdom / Open Matte
    Страна: США, Германия
    Жанр: боевик, триллер, драма
    Год выпуска: 2007
    Продолжительность: 01:45:11
    Перевод: Профессиональный (дублированный) R5
    Перевод 2: Профессиональный (многоголосый закадровый) 1 канал
    Перевод 3: Авторский (одноголосый закадровый) Немахов
    Перевод 4: Авторский (одноголосый закадровый) Живов
    Перевод 5: Авторский (одноголосый закадровый) Гаврилов
    Cубтитры: русские, английские
    Оригинальная аудиодорожка: английский
    Режиссер: Питер Берг / Peter Berg
    В ролях: Джейми Фокс, Крис Купер, Дженнифер Гарнер, Джейсон Бейтман, Ашраф Бархом, Али Сулимэн, Джереми Пивен, Ричард Дженкинс, Тим Макгро, Кайл Чендлер, Фрэнсис Фишер, Дэнни Хьюстон, Келли Окоин
    Описание: Драматический боевик на острую нынче тему конфликта на Ближнем Востоке. В этот трудный во всех отношениях регион отправляется команда из четверых профессиональных агентов ФБР, чтобы расследовать теракт, произошедший на американском объекте в этой стране, и найти некого Абу Хамза, предположительно главу террористов. Сразу становится ясно, что миссия будет не из легких. Однако американцы находят общий язык с представителем местной полиции, который будет по возможности оказывать команде помощь в установлении справедливости в этой чужой им стране.
    Доп. информация: В ремукс к видео с HDTV добавлены дубляж, оригинальная дорожка и субтитры с BD. Из видеоряда удалены все затемнения и послерекламные вставки с названием фильма. Видеоряд подогнан под дорожки с BD, но корочеПродолжительность дана по аудиодорожкам - видеоряд короче аудио, так как финальные титры на первом канале "сокращенно-ускоренные".
    Сэмпл: http://multi-up.com/1098993
    Тип релиза: HDTV 1080i
    Контейнер: MKV
    Видео: AVC, 1920x1080 (16:9), 25.000 fps, 11.4 Mbps (0.221 bit/pixel)
    Аудио: DTS, 48.0 KHz, 6 ch, 768 Kbps, CBR (Russian) - дубляж
    Аудио 2: AC-3, 48.0 KHz, 2 ch, 192 Kbps, CBR (Russian) - многоголосый
    Аудио 3: DTS, 48.0 KHz, 6 ch, 1 510 Kbps, CBR (Russian) - Немахов
    Аудио 4: AC-3, 48.0 KHz, 6 ch, 448 Kbps, CBR (Russian) - Живов
    Аудио 5: AC-3, 48.0 KHz, 6 ch, 448 Kbps, CBR (Russian) - Гаврилов
    Аудио 6: DTS, 48.0 KHz, 6 ch, 1 510 Kbps, CBR (English)
    Формат субтитров: softsub (SRT)

    MediaInfo

    Общее
    Уникальный идентификатор : 237543929740259870549040335134598723060 (0xB2B54BF71D518724B53D69E0A9ED75F4)
    Полное имя : M:\Королевство.mkv
    Формат : Matroska
    Версия формата : Version 2
    Размер файла : 12,3 Гбайт
    Продолжительность : 1 ч. 45 м.
    Общий поток : 16,6 Мбит/сек
    Название фильма : Королевство / The Kingdom (2007)
    Дата кодирования : UTC 2016-04-24 17:35:59
    Программа кодирования : mkvmerge v8.2.0 ('World of Adventure') 64bit
    Библиотека кодирования : libebml v1.3.1 + libmatroska v1.4.2
    Видео
    Идентификатор : 1
    Формат : AVC
    Формат/Информация : Advanced Video Codec
    Профиль формата : Main@L4
    Параметр CABAC формата : Да
    Параметр ReFrames формата : 3 кадра
    Параметр GOP формата : M=4, N=28
    Идентификатор кодека : V_MPEG4/ISO/AVC
    Битрейт : 11,4 Мбит/сек
    Ширина : 1920 пикселей
    Высота : 1080 пикселей
    Соотношение сторон : 16:9
    Режим частоты кадров : Переменный
    Частота кадров в оригинале : 25,000 кадров/сек
    Стандарт вещания : Component
    Цветовое пространство : YUV
    Субдискретизация насыщенности : 4:2:0
    Битовая глубина : 8 бит
    Тип развёртки : Чересстрочная
    Метод сохранения типа развёртки : Раздельные поля
    Порядок развёртки : Верхнее поле первое
    Язык : English
    Default : Да
    Forced : Нет
    Цветовой диапазон : Limited
    Основные цвета : BT.709
    Характеристики трансфера : BT.709
    Коэффициенты матрицы : BT.709
    Аудио #1
    Идентификатор : 2
    Формат : DTS
    Формат/Информация : Digital Theater Systems
    Режим : 16
    Параметр Endianness формата : Big
    Идентификатор кодека : A_DTS
    Продолжительность : 1 ч. 45 м.
    Вид битрейта : Постоянный
    Битрейт : 768 Кбит/сек
    Каналы : 6 каналов
    Расположение каналов : Front: L C R, Side: L R, LFE
    Частота : 48,0 КГц
    Частота кадров : 93,750 кадра/сек (512 spf)
    Битовая глубина : 24 бит
    Метод сжатия : С потерями
    Задержка видео : -9 мс.
    Размер потока : 581 Мбайт (5%)
    Заголовок : Профессиональный (полное дублирование)
    Язык : Russian
    Default : Да
    Forced : Нет
    Аудио #2
    Идентификатор : 3
    Формат : AC-3
    Формат/Информация : Audio Coding 3
    Расширение режима : CM (complete main)
    Параметр Endianness формата : Big
    Идентификатор кодека : A_AC3
    Продолжительность : 1 ч. 45 м.
    Вид битрейта : Постоянный
    Битрейт : 192 Кбит/сек
    Каналы : 2 канала
    Расположение каналов : Front: L R
    Частота : 48,0 КГц
    Частота кадров : 31,250 кадров/сек (1536 spf)
    Метод сжатия : С потерями
    Задержка видео : -9 мс.
    Размер потока : 145 Мбайт (1%)
    Заголовок : Профессиональный (многоголосый закадровый) 1 канал
    Язык : Russian
    Default : Нет
    Forced : Нет
    Аудио #3
    Идентификатор : 4
    Формат : DTS
    Формат/Информация : Digital Theater Systems
    Режим : 16
    Параметр Endianness формата : Big
    Идентификатор кодека : A_DTS
    Продолжительность : 1 ч. 45 м.
    Вид битрейта : Постоянный
    Битрейт : 1510 Кбит/сек
    Каналы : 6 каналов
    Расположение каналов : Front: L C R, Side: L R, LFE
    Частота : 48,0 КГц
    Частота кадров : 93,750 кадра/сек (512 spf)
    Битовая глубина : 24 бит
    Метод сжатия : С потерями
    Задержка видео : -9 мс.
    Размер потока : 1,12 Гбайт (9%)
    Заголовок : Авторский (одноголосый закадровый) Немахов
    Язык : Russian
    Default : Нет
    Forced : Нет
    Аудио #4
    Идентификатор : 5
    Формат : AC-3
    Формат/Информация : Audio Coding 3
    Расширение режима : CM (complete main)
    Параметр Endianness формата : Big
    Идентификатор кодека : A_AC3
    Продолжительность : 1 ч. 45 м.
    Вид битрейта : Постоянный
    Битрейт : 448 Кбит/сек
    Каналы : 6 каналов
    Расположение каналов : Front: L C R, Side: L R, LFE
    Частота : 48,0 КГц
    Частота кадров : 31,250 кадров/сек (1536 spf)
    Метод сжатия : С потерями
    Задержка видео : -9 мс.
    Размер потока : 339 Мбайт (3%)
    Заголовок : Авторский (одноголосый закадровый) Живов
    Язык : Russian
    Default : Нет
    Forced : Нет
    Аудио #5
    Идентификатор : 6
    Формат : AC-3
    Формат/Информация : Audio Coding 3
    Расширение режима : CM (complete main)
    Параметр Endianness формата : Big
    Идентификатор кодека : A_AC3
    Продолжительность : 1 ч. 45 м.
    Вид битрейта : Постоянный
    Битрейт : 448 Кбит/сек
    Каналы : 6 каналов
    Расположение каналов : Front: L C R, Side: L R, LFE
    Частота : 48,0 КГц
    Частота кадров : 31,250 кадров/сек (1536 spf)
    Метод сжатия : С потерями
    Задержка видео : -9 мс.
    Размер потока : 339 Мбайт (3%)
    Заголовок : Авторский (одноголосый закадровый) Гаврилов
    Язык : Russian
    Default : Нет
    Forced : Нет
    Аудио #6
    Идентификатор : 7
    Формат : DTS
    Формат/Информация : Digital Theater Systems
    Режим : 16
    Параметр Endianness формата : Big
    Идентификатор кодека : A_DTS
    Продолжительность : 1 ч. 45 м.
    Вид битрейта : Постоянный
    Битрейт : 1510 Кбит/сек
    Каналы : 6 каналов
    Расположение каналов : Front: L C R, Side: L R, LFE
    Частота : 48,0 КГц
    Частота кадров : 93,750 кадра/сек (512 spf)
    Битовая глубина : 24 бит
    Метод сжатия : С потерями
    Задержка видео : -9 мс.
    Размер потока : 1,12 Гбайт (9%)
    Язык : English
    Default : Нет
    Forced : Нет
    Текст #1
    Идентификатор : 8
    Формат : UTF-8
    Идентификатор кодека : S_TEXT/UTF8
    Идентификатор кодека/Информация : UTF-8 Plain Text
    Язык : Russian
    Default : Нет
    Forced : Нет
    Текст #2
    Идентификатор : 9
    Формат : UTF-8
    Идентификатор кодека : S_TEXT/UTF8
    Идентификатор кодека/Информация : UTF-8 Plain Text
    Язык : English
    Default : Нет
    Forced : Нет

    Скриншоты

    Торрент перезалит 24.04.16 - добавлены дорожки с авторской озвучкой
    Скачать .torrent

    Скачать торрент-файл бесплатно и на максимальной скорости!

    Как скачивать? · Что такое торрент? · Рейтинг и ограничения

    !ВНИМАНИЕ!
    Сайт не распространяет и не хранит электронные версии произведений, а занимается лишь лишь предоставлением доступа к создаваемому пользователями каталогу ссылок на торрент-файлы, которые содержат только списки хеш-сумм, убедительная просьба с жалобами обращаться напрямую к пользователю. Файлы для обмена на трекере предоставлены пользователями сайта, и администрация не несёт ответственности за их содержание. Просьба не заливать файлы, защищенные авторскими правами, а также файлы нелегального содержания!


    _________________
    [Профиль] [ЛС]
    Показать сообщения:    
    Ответить на тему

    Текущее время: Сегодня, в 06:02

    Часовой пояс: GMT + 2



    Вы не можете начинать темы
    Вы не можете отвечать на сообщения
    Вы не можете редактировать свои сообщения
    Вы не можете удалять свои сообщения
    Вы не можете голосовать в опросах
    Вы не можете прикреплять файлы к сообщениям
    Вы не можете скачивать файлы