BitTorrentTracker PerecTracker.org
BitTorrentTracker PerecTracker.org
    
Регистрация  ·  Вход
 
 · 
Забыли пароль?

  • Kingsman: Секретная служба / Kingsman: The Secret Service (Мэттью Вон / Matthew Vaughn) [2014, Великобритания, боевик, комедия, криминал, приключения, HDRip] Dub

    Ответить на тему
     
    Автор Сообщение

    Light

    Создавать темы 25-Апр-2016 03:05

           

    [Цитировать]

    Kingsman: Секретная служба / Kingsman: The Secret Service«Manners maketh the man»Страна: Великобритания
    Жанр: боевик, комедия, криминал, приключения
    Год выпуска: 2014
    Продолжительность: 02:08:44
    Перевод: Профессиональный (полное дублирование) [Лицензия]
    Cубтитры: нет
    Оригинальная аудиодорожка: нет
    Режиссер: Мэттью Вон / Matthew Vaughn
    В ролях: Тэрон Эджертон, Колин Фёрт, Сэмюэл Л. Джексон, Марк Стронг, Софи Куксон, Майкл Кейн, София Бутелла, Саманта Янус, Джофф Белл, Марк Хэмилл
    Описание: Эггси — молодой парень, который прошел службу в морской пехоте и имеет очень высокий уровень интеллекта. Он мог бы добиться многого, но выбрал другой путь и стал мелким преступником. Однажды он знакомится с Гарри Хартом, которому его отец когда-то спас жизнь. Этот человек решил сделать все возможное, чтобы сделать жизнь Эггси лучше и открыть для него новые возможности.
    Гарри рассказал ему, что является агентом секретной независимой организации, которая стоит на защите всего мира. Он предложил парню пройти обучение и стать новым членом их команды. Эггси принял предложение Харта, но сможет ли он справиться со всеми испытаниями и оправдать его надежды?
    Группа
    желает всем приятного просмотра!Качество видео: HDRip / BDRip (1080p)
    Формат видео: AVI
    Видео: 720x304 (2.37:1), 23.976 fps, XviD build 65 ~1182 kbps avg, 0.23 bit/pixel
    Audio #1: 48 kHz, AC3 Dolby Digital, 3/2 (L,C,R,l,r) + LFE ch, ~448 kbps
    Сравнениеhttp://perectracker.org/http://perectracker.org/viewtopic.php?t=5035872
    http://screenshotcomparison.com/comparison/170608/picture:2

    MediaInfo

    General
    Complete name : D:\Торренты\Kingsman The Secret Service_Drek_Rutracker.org.avi
    Format : AVI
    Format/Info : Audio Video Interleave
    File size : 1.47 GiB
    Duration : 2h 8mn
    Overall bit rate : 1 640 Kbps
    Writing application : VirtualDubMod 1.5.10.2 (build 2540/release)
    Writing library : VirtualDubMod build 2540/release
    Video
    ID : 0
    Format : MPEG-4 Visual
    Format profile : Advanced Simple@L5
    Format settings, BVOP : 1
    Format settings, QPel : No
    Format settings, GMC : No warppoints
    Format settings, Matrix : Custom
    Codec ID : XVID
    Codec ID/Hint : XviD
    Duration : 2h 8mn
    Bit rate : 1 183 Kbps
    Width : 720 pixels
    Height : 304 pixels
    Display aspect ratio : 2.35:1
    Frame rate : 23.976 (24000/1001) fps
    Color space : YUV
    Chroma subsampling : 4:2:0
    Bit depth : 8 bits
    Scan type : Progressive
    Compression mode : Lossy
    Bits/(Pixel*Frame) : 0.225
    Stream size : 1.06 GiB (72%)
    Writing library : XviD 65
    Audio
    ID : 1
    Format : AC-3
    Format/Info : Audio Coding 3
    Mode extension : CM (complete main)
    Format settings, Endianness : Big
    Codec ID : 2000
    Duration : 2h 8mn
    Bit rate mode : Constant
    Bit rate : 448 Kbps
    Channel(s) : 6 channels
    Channel positions : Front: L C R, Side: L R, LFE
    Sampling rate : 48.0 KHz
    Frame rate : 31.250 fps (1536 spf)
    Compression mode : Lossy
    Stream size : 412 MiB (27%)
    Alignment : Split accross interleaves
    Interleave, duration : 42 ms (1.00 video frame)
    Interleave, preload duratio : 500 ms
    Скриншоты
    Скачать .torrent

    Скачать торрент-файл бесплатно и на максимальной скорости!

    Как скачивать? · Что такое торрент? · Рейтинг и ограничения

    !ВНИМАНИЕ!
    Сайт не распространяет и не хранит электронные версии произведений, а занимается лишь лишь предоставлением доступа к создаваемому пользователями каталогу ссылок на торрент-файлы, которые содержат только списки хеш-сумм, убедительная просьба с жалобами обращаться напрямую к пользователю. Файлы для обмена на трекере предоставлены пользователями сайта, и администрация не несёт ответственности за их содержание. Просьба не заливать файлы, защищенные авторскими правами, а также файлы нелегального содержания!


    _________________
    [Профиль] [ЛС]
    Показать сообщения:    
    Ответить на тему

    Текущее время: Сегодня, в 04:25

    Часовой пояс: GMT + 2



    Вы не можете начинать темы
    Вы не можете отвечать на сообщения
    Вы не можете редактировать свои сообщения
    Вы не можете удалять свои сообщения
    Вы не можете голосовать в опросах
    Вы не можете прикреплять файлы к сообщениям
    Вы не можете скачивать файлы