BitTorrentTracker PerecTracker.org
BitTorrentTracker PerecTracker.org
    
Регистрация  ·  Вход
 
 · 
Забыли пароль?

  • Надо выдать маму замуж / Il faut marier maman (Жером Наварро / Jerome Navarro) [2013, Франция, романтическая комедия, DVB] Original (Fre) + Sub (Rus, Eng, Fre, Deu)

    Ответить на тему
     
    Автор Сообщение

    Light

    Создавать темы 24-Апр-2016 22:53

           

    [Цитировать]

    Надо выдать маму замуж
    Il faut marier maman-Страна: Франция
    Жанр: романтическая комедия
    Год выпуска: 2013
    Продолжительность: 01:31:14
    Перевод: Субтитры (перевод Е.Маньен, Éclair Group)
    Cубтитры: русские
    Оригинальная аудиодорожка: французский
    Режиссер: Жером Наварро / Jérôme NavarroВ ролях: Мишель Бернье / Michèle Bernier (Dany), Морган Кабо / Morgane Cabot (Alix), Франсин Берже / Francine Bergé (Violette), Жан-Шарль Шагашбанян / Jean-Charles Chagachbanian (Eric), Даниэль Руссо / Daniel Russo (Gérard), Шарль Темплон / Charles Templon (Nicolas)
    Описание: 50-летняя стоматолог Дани впадает в депрессию после того, как ее муж уходит к женщине на 15 лет моложе. Чтобы помочь матери в это трудное время к ней с учебы в Швейцарии приезжает дочь Аликс. Однако очень скоро в жизни Дани появляется другой мужчина – молодой художник Эрик без гроша в кармане. Перед Дани встает дилемма: есть ли у нее будущее с этим молодым мужчиной, и как к такому положению вещей отнесется ее пуританских взглядов дочь?-Мишель Бернье - дочь известного писателя, певца и комика Профессора Шорона - также стала комедийной театральной и кино-актрисой. На ее счету участие в женском комедийном трио "Девушки", работа на радио в качестве радиоведущей, участие в варьете "Сексуальная революция в песнях" (2007), посвященном событиям 1967 года во Франции, а также в фильмах "Проклятый газон" (1995) реж. Жозиан Баласко, "Чемоданы Тульса Люпера" (2003) реж. Питера Гринуэя, "Железнодорожный роман" (2007) реж. Клода Лелуша, работа в театре и на TV, среди последних выделяется главная роль в необычном комедийном телесериале "Дела семейные" (2012).-Доп. информация: Hot Bird (13.0°E) TV5MONDE Europe DVB-S

    Качество видео: DVB
    Формат видео: TS
    Видео: MPEG Video 2, 720x576@1024x576 (16:9), 25 fps, ~3265 kbps avg, 0.315 bit/pixel
    Аудио: MPEG Audio 2, 2 ch, 48 kHz, 192 kbps - французский
    Формат субтитров: PGS

    MediaInfo

    GeneralID : 1 (0x1)Complete name : [apreder]Il_faut_marier_maman(2013)DVB.tsFormat : MPEG-TSFile size : 2.32 GiBDuration : 1h 31mnOverall bit rate mode : VariableOverall bit rate : 3 639 KbpsMaximum Overall bit rate : 35.5 Mbps
    VideoID : 4113 (0x1011)Menu ID : 1 (0x1)Format : MPEG VideoFormat version : Version 2Format profile : Main@MainFormat settings, BVOP : YesFormat settings, Matrix : CustomFormat settings, GOP : M=4, N=12Format settings, picture structure : FrameCodec ID : 2Duration : 1h 31mnBit rate mode : VariableBit rate : 3 265 KbpsWidth : 720 pixelsHeight : 576 pixelsDisplay aspect ratio : 16:9Frame rate : 25.000 fpsStandard : PALColor space : YUVChroma subsampling : 4:2:0Bit depth : 8 bitsScan type : InterlacedScan order : Top Field FirstCompression mode : LossyBits/(Pixel*Frame) : 0.315Time code of first frame : 00:00:00:00Time code source : Group of pictures headerGOP, Open/Closed : OpenGOP, Open/Closed of first frame : ClosedStream size : 2.08 GiB (90%)
    AudioID : 4352 (0x1100)Menu ID : 1 (0x1)Format : MPEG AudioFormat version : Version 1Format profile : Layer 2Mode : Joint stereoMode extension : Intensity Stereo + MS StereoCodec ID : 4Duration : 1h 31mnBit rate mode : ConstantBit rate : 192 KbpsChannel(s) : 2 channelsSampling rate : 48.0 KHzCompression mode : LossyStream size : 125 MiB (5%)Language : French
    Text #1ID : 4608 (0x1200)Menu ID : 1 (0x1)Format : PGSCodec ID : 144Duration : 1h 31mnDelay relative to video : 2s 800msLanguage : Russian
    Text #2ID : 4609 (0x1201)Menu ID : 1 (0x1)Format : PGSCodec ID : 144Duration : 1h 31mnDelay relative to video : 2s 800msLanguage : English
    Text #3ID : 4610 (0x1202)Menu ID : 1 (0x1)Format : PGSCodec ID : 144Duration : 1h 31mnDelay relative to video : 2s 800msLanguage : French
    Text #4ID : 4611 (0x1203)Menu ID : 1 (0x1)Format : PGSCodec ID : 144Duration : 1h 31mnDelay relative to video : 2s 800msLanguage : German
    Text #5ID : 4612 (0x1204)Menu ID : 1 (0x1)Format : PGSCodec ID : 144Duration : 1h 31mnDelay relative to video : 2s 800msLanguage : Dutch
    Text #6ID : 4613 (0x1205)Menu ID : 1 (0x1)Format : PGSCodec ID : 144Duration : 1h 31mnDelay relative to video : 2s 800msLanguage : Romanian

    Скриншот c названием фильма

    Скриншоты

    Резервные скриншоты


    -[1'116]
    Скачать .torrent

    Скачать торрент-файл бесплатно и на максимальной скорости!

    Как скачивать? · Что такое торрент? · Рейтинг и ограничения

    !ВНИМАНИЕ!
    Сайт не распространяет и не хранит электронные версии произведений, а занимается лишь лишь предоставлением доступа к создаваемому пользователями каталогу ссылок на торрент-файлы, которые содержат только списки хеш-сумм, убедительная просьба с жалобами обращаться напрямую к пользователю. Файлы для обмена на трекере предоставлены пользователями сайта, и администрация не несёт ответственности за их содержание. Просьба не заливать файлы, защищенные авторскими правами, а также файлы нелегального содержания!


    _________________
    [Профиль] [ЛС]
    Показать сообщения:    
    Ответить на тему

    Текущее время: Сегодня, в 10:41

    Часовой пояс: GMT + 2



    Вы не можете начинать темы
    Вы не можете отвечать на сообщения
    Вы не можете редактировать свои сообщения
    Вы не можете удалять свои сообщения
    Вы не можете голосовать в опросах
    Вы не можете прикреплять файлы к сообщениям
    Вы не можете скачивать файлы