BitTorrentTracker PerecTracker.org
BitTorrentTracker PerecTracker.org
    
Регистрация  ·  Вход
 
 · 
Забыли пароль?

  • Аббатство Даунтон / Downton Abbey / Сезон: 6 / Серии: 1-8 из 8 + Рождественский эпизод (Брайан Персивал, Энди Годдар, Брайан Келли) [2015, драма, история, WEB-DLRip] MVO (BaibaKo) + Original + Subs (Rus, Eng)

    Ответить на тему
     
    Автор Сообщение

    vlad

    Создавать темы 24-Апр-2016 22:10

           

    [Цитировать]

    -Аббатство Даунтон | Downton Abbey--Год выпуска: 2015
    Страна: Великобритания
    Жанр: драма, история
    Продолжительность: ~ 01:00:00-Перевод: Профессиональный (многоголосый закадровый) | BaibaKo
    Режиссёр: Брайан Персивал, Энди Годдар, Брайан Келли-В ролях: Мишель Докери, Дэн Стивенс, Хью Бонневилль, Элизабет МакГоверн, Мэгги Смит, Брендан Койл, Джоанн Фроггатт, Лаура Кармайкл, Джессика Браун-Финдли, Роб Джеймс-Колльер-Описание:1922 год. Продолжение рассказа о жизни семьи Кроули и их придворных слуг. Снова время перемен, позади - бесконечные войны и смутные дни, а впереди новое будущее, надежда на полное восстановление династии.--| Ссылка на предыдущие и альтернативные раздачи-Качество: WEB-DLRip
    Формат: AVI
    Видео кодек: XviD
    Аудио кодек: MP3-Видео: 720x400 (16:9), 23,976 fps, ~1500 kbps
    Аудио 1: MP3, 48 kHz, 2 ch, 128 kbps, CBR - Rus
    Аудио 2: MP3, 48 kHz, 2 ch, 128 kbps, CBR - Eng
    Субтитры: Русские (нотабеноид), английские-

    Релиз

    Перевод: vipere
    Озвучка: Ольга Мотрич, Елена Григорьева, Юля Малахова, Владимир Курдов и Алексей Кузнецов
    Монтаж: Павел Дежин
    Обложка: tvblog
    Субтитры Нотабеноид от S0phie, синхронизация qqss44
    рип qqss44

    MediaInfo

    Общее
    Полное имя                               : X:\ATorrent\Downton Abbey (S06)\Downton.Abbey.S06E01.XviD.BaibaKo.[qqss44].avi
    Формат                                   : AVI
    Формат/Информация                        : Audio Video Interleave
    Размер файла                             : 898 Мбайт
    Продолжительность                        : 1 ч. 9 м.
    Общий поток                              : 1809 Кбит/сек
    Программа кодирования                    : VirtualDubMod 1.5.10.3 | www.virtualdub-fr.org || (build 2550/release)
    Библиотека кодирования                   : VirtualDubMod build 2550/release
    Видео
    Идентификатор                            : 0
    Формат                                   : MPEG-4 Visual
    Профиль формата                          : Advanced Simple@L5
    Параметр BVOP формата                    : 2
    Параметр QPel формата                    : Нет
    Параметр GMC формата                     : Без точки перехода
    Параметр матрицы формата                 : Default (MPEG)
    Идентификатор кодека                     : XVID
    Идентификатор кодека/Подсказка           : XviD
    Продолжительность                        : 1 ч. 9 м.
    Битрейт                                  : 1539 Кбит/сек
    Ширина                                   : 720 пикселей
    Высота                                   : 400 пикселей
    Соотношение сторон                       : 16:9
    Частота кадров                           : 23,976 кадра/сек
    Цветовое пространство                    : YUV
    Субдискретизация насыщенности            : 4:2:0
    Битовая глубина                          : 8 бит
    Тип развёртки                            : Прогрессивная
    Метод сжатия                             : С потерями
    Бит/(Пиксели*Кадры)                      : 0.223
    Размер потока                            : 764 Мбайт (85%)
    Библиотека кодирования                   : XviD 73
    Аудио #1
    Идентификатор                            : 1
    Формат                                   : MPEG Audio
    Версия формата                           : Version 1
    Профиль формата                          : Layer 3
    Режим                                    : Joint stereo
    Расширение режима                        : MS Stereo
    Идентификатор кодека                     : 55
    Идентификатор кодека/Подсказка           : MP3
    Продолжительность                        : 1 ч. 9 м.
    Вид битрейта                             : Постоянный
    Битрейт                                  : 128 Кбит/сек
    Каналы                                   : 2 канала
    Частота                                  : 48,0 КГц
    Метод сжатия                             : С потерями
    Размер потока                            : 63,6 Мбайт (7%)
    Выравнивание                             : Соединение по промежуткам
    Продолжительность промежутка             : 42  мс. (1,00 видеокадр)
    Время предзагрузки промежутка            : 504  мс.
    Аудио #2
    Идентификатор                            : 2
    Формат                                   : MPEG Audio
    Версия формата                           : Version 1
    Профиль формата                          : Layer 3
    Режим                                    : Joint stereo
    Расширение режима                        : MS Stereo
    Идентификатор кодека                     : 55
    Идентификатор кодека/Подсказка           : MP3
    Продолжительность                        : 1 ч. 9 м.
    Вид битрейта                             : Постоянный
    Битрейт                                  : 128 Кбит/сек
    Каналы                                   : 2 канала
    Частота                                  : 48,0 КГц
    Метод сжатия                             : С потерями
    Размер потока                            : 63,6 Мбайт (7%)
    Выравнивание                             : Соединение по промежуткам
    Продолжительность промежутка             : 42  мс. (1,00 видеокадр)
    Время предзагрузки промежутка            : 504  мс.

    Скриншоты

    Скачать .torrent

    Скачать торрент-файл бесплатно и на максимальной скорости!

    Как скачивать? · Что такое торрент? · Рейтинг и ограничения

    !ВНИМАНИЕ!
    Сайт не распространяет и не хранит электронные версии произведений, а занимается лишь лишь предоставлением доступа к создаваемому пользователями каталогу ссылок на торрент-файлы, которые содержат только списки хеш-сумм, убедительная просьба с жалобами обращаться напрямую к пользователю. Файлы для обмена на трекере предоставлены пользователями сайта, и администрация не несёт ответственности за их содержание. Просьба не заливать файлы, защищенные авторскими правами, а также файлы нелегального содержания!


    _________________
    [Профиль] [ЛС]
    Показать сообщения:    
    Ответить на тему

    Текущее время: Сегодня, в 20:54

    Часовой пояс: GMT + 2



    Вы не можете начинать темы
    Вы не можете отвечать на сообщения
    Вы не можете редактировать свои сообщения
    Вы не можете удалять свои сообщения
    Вы не можете голосовать в опросах
    Вы не можете прикреплять файлы к сообщениям
    Вы не можете скачивать файлы