BitTorrentTracker PerecTracker.org
BitTorrentTracker PerecTracker.org
    
Регистрация  ·  Вход
 
 · 
Забыли пароль?

  • Хорошие вибрации / Good Vibrations (Лиза Баррос Д’Са, Глен Лейберн / Lisa Barros D'Sa, Glenn Leyburn) [2012 г., драма, биография, музыка, HDRip-AVC]

    Ответить на тему
     
    Автор Сообщение

    rechyn

    Создавать темы 01-Фев-2014 17:38

           

    [Цитировать]

    Хорошие вибрации / Good Vibrations-Год выпуска: 2012
    Страна: Великобритания, Ирландия
    Жанр: драма, биография, музыка
    Продолжительность: 01:42:45
    Перевод: Любительский (одноголосый, закадровый) [Михаил Яроцкий (kyberpunk)]
    Субтитры: русские (на песни), английские
    Формат субтитров: softsub (SRT)
    Оригинальная аудио дорожка: английский--Режиссер: Лиза Баррос Д’Са, Глен Лейберн / Lisa Barros D'Sa, Glenn Leyburn
    Продюссер: Бруно Чарльзуорт, Эндрю Итон, Дэвид Холмс
    Сценарий: Колин Карберри, Гленн Паттерсон--Премьера в Мире: 31 мая 2012
    --В ролях: Лиам Каннингэм, Джоди Уиттакер, Дилан Моран, Дэвид Уилмот, Эндрю Симпсон, Карл Джонсон, Марк Райдер, Ричард Дормер, Киллиан Скотт, Ниал Райт--Описание: Белфаст, 70-е годы. Терри [цензура] - меломан и ожесточенный бунтарь. Он спокойно живет в родном городе, пока он не захлебывается от конфликта в Северной Ирландии. Пока все как один друзья Терри берутся за оружие, он открывает музыкальную лавку Good Vibrations. И не где-нибудь, а в самом сердце конфликта, в самой горячей точке Европы. Именно здесь он улавливает вибрации сопротивления, поступающие от молодой панк-тусовки. Более того, Терри становится лидером пестрой группы, призванной создать новую общину, альтернативный Ольстер, которая бы вернула к жизни измученный город.--Доп. информация:
    Перевод Михаила Яроцкого (kyberpunk) доступен благодаря пользователям "Переулка переводмана": farivan, kidman644, mihey10, 189s, MrRose, Ольге Левицкой.
    Работа со звуком Perevodman.
    Рип - mihaildns. --

    Знаете ли Вы, что...

  • Съемки проходили в Белфасте, Великобритании и Северной Ирландии.
  • --Качество: HDRip-AVC
    Формат: MKV
    Видео кодек: H.264
    Аудио кодек: AC3
    Видео: 1152x496 (2,35:1), 23,976 fps, 2941 Кbps, 0.215 bit/pixel
    Аудио 1: 48 kHz, AC3 Dolby Digital, 3/2 (L,C,R) + L R, LFE ch, ~448.00 kbps avg - Яроцкий
    Аудио 2: 48 kHz, AC3 Dolby Digital, 3/2 (L,C,R) + L R, LFE ch, ~448.00 kbps avg - Eng

    MediaInfo

    Общее
    Уникальный идентификатор : 194519949495429236355826169681650332389 (0x92572DF71485298D9C7A233DBF2332E5)
    Формат : Matroska
    Версия формата : Version 2
    Размер файла : 2,75 Гбайт
    Продолжительность : 1 ч. 42 м.
    Общий поток : 3838 Кбит/сек
    Дата кодирования : UTC 2014-02-01 00:55:54
    Программа кодирования : mkvmerge v2.9.7 ('Tenderness') built on Jul 1 2009 18:43:35
    Библиотека кодирования : libebml v0.7.7 + libmatroska v0.8.1
    Видео
    Идентификатор : 1
    Формат : AVC
    Формат/Информация : Advanced Video Codec
    Профиль формата : High@L4.1
    Параметр CABAC формата : Да
    Параметр ReFrames формата : 7 кадров
    Идентификатор кодека : V_MPEG4/ISO/AVC
    Продолжительность : 1 ч. 42 м.
    Битрейт : 2941 Кбит/сек
    Ширина : 1152 пикселя
    Высота : 496 пикселей
    Соотношение сторон : 2,35:1
    Режим частоты кадров : Постоянный
    Частота кадров : 23,976 кадра/сек
    Цветовое пространство : YUV
    Субдискретизация насыщенности : 4:2:0
    Битовая глубина : 8 бит
    Тип развёртки : Прогрессивная
    Бит/(Пиксели*Кадры) : 0.215
    Размер потока : 2,06 Гбайт (75%)
    Заголовок : Rip by mihaildns
    Библиотека кодирования : x264 core 125 r2208 d9d2288
    Настройки программы : cabac=1 / ref=7 / deblock=1:-3:-3 / analyse=0x3:0x111 / me=umh / subme=9 / psy=1 / psy_rd=1.00:0.00 / mixed_ref=1 / me_range=24 / chroma_me=1 / trellis=2 / 8x8dct=1 / cqm=0 / deadzone=21,11 / fast_pskip=0 / chroma_qp_offset=-2 / threads=3 / lookahead_threads=1 / sliced_threads=0 / nr=0 / decimate=1 / interlaced=0 / bluray_compat=0 / constrained_intra=0 / bframes=9 / b_pyramid=2 / b_adapt=2 / b_bias=0 / direct=3 / weightb=1 / open_gop=0 / weightp=2 / keyint=250 / keyint_min=23 / scenecut=40 / intra_refresh=0 / rc_lookahead=50 / rc=2pass / mbtree=1 / bitrate=2941 / ratetol=1.0 / qcomp=0.60 / qpmin=0 / qpmax=69 / qpstep=4 / cplxblur=20.0 / qblur=0.5 / ip_ratio=1.40 / aq=1:1.10
    Язык : English
    Default : Да
    Forced : Нет
    Аудио #1
    Идентификатор : 2
    Формат : AC-3
    Формат/Информация : Audio Coding 3
    Расширение режима : CM (complete main)
    Параметр Endianness формата : Big
    Идентификатор кодека : A_AC3
    Продолжительность : 1 ч. 42 м.
    Вид битрейта : Постоянный
    Битрейт : 448 Кбит/сек
    Каналы : 6 каналов
    Расположение каналов : Front: L C R, Side: L R, LFE
    Частота : 48,0 КГц
    Битовая глубина : 16 бит
    Метод сжатия : С потерями
    Размер потока : 329 Мбайт (12%)
    Заголовок : Михаил Яроцкий
    Язык : Russian
    Default : Да
    Forced : Нет
    Аудио #2
    Идентификатор : 3
    Формат : AC-3
    Формат/Информация : Audio Coding 3
    Расширение режима : CM (complete main)
    Параметр Endianness формата : Big
    Идентификатор кодека : A_AC3
    Продолжительность : 1 ч. 42 м.
    Вид битрейта : Постоянный
    Битрейт : 448 Кбит/сек
    Каналы : 6 каналов
    Расположение каналов : Front: L C R, Side: L R, LFE
    Частота : 48,0 КГц
    Битовая глубина : 16 бит
    Метод сжатия : С потерями
    Размер потока : 329 Мбайт (12%)
    Заголовок : Оригинал
    Язык : English
    Default : Нет
    Forced : Нет
    Текст #1
    Идентификатор : 4
    Формат : UTF-8
    Идентификатор кодека : S_TEXT/UTF8
    Идентификатор кодека/Информация : UTF-8 Plain Text
    Заголовок : На песни (перевод Михаила Яроцкого)
    Язык : Russian
    Default : Да
    Forced : Нет
    Текст #2
    Идентификатор : 5
    Формат : UTF-8
    Идентификатор кодека : S_TEXT/UTF8
    Идентификатор кодека/Информация : UTF-8 Plain Text
    Язык : English
    Default : Нет
    Forced : Нет

    Скриншоты

    Скачать .torrent

    Скачать торрент-файл бесплатно и на максимальной скорости!

    Как скачивать? · Что такое торрент? · Рейтинг и ограничения

    !ВНИМАНИЕ!
    Сайт не распространяет и не хранит электронные версии произведений, а занимается лишь лишь предоставлением доступа к создаваемому пользователями каталогу ссылок на торрент-файлы, которые содержат только списки хеш-сумм, убедительная просьба с жалобами обращаться напрямую к пользователю. Файлы для обмена на трекере предоставлены пользователями сайта, и администрация не несёт ответственности за их содержание. Просьба не заливать файлы, защищенные авторскими правами, а также файлы нелегального содержания!


    _________________
    [Профиль] [ЛС]
    Показать сообщения:    
    Ответить на тему

    Текущее время: Сегодня, в 08:01

    Часовой пояс: GMT + 2



    Вы не можете начинать темы
    Вы не можете отвечать на сообщения
    Вы не можете редактировать свои сообщения
    Вы не можете удалять свои сообщения
    Вы не можете голосовать в опросах
    Вы не можете прикреплять файлы к сообщениям
    Вы не можете скачивать файлы