BitTorrentTracker PerecTracker.org
BitTorrentTracker PerecTracker.org
    
Регистрация  ·  Вход
 
 · 
Забыли пароль?

  • Три дороги / Серии: 1-4 из 4 (Мирослав Малич) [2016, мелодрама, WEBRip]

    Ответить на тему
     
    Автор Сообщение

    rechyn

    Создавать темы 24-Апр-2016 18:47

           

    [Цитировать]

    Три дороги
    Год выпуска: 2016
    Производство: Россия,Телемастер, ABC Film и Film Stream
    Жанр: мелодрама
    Продолжительность: 00:47:00
    Субтитры: нет
    Режиссёр: Мирослав Малич
    В ролях: Мария Куликова, Евгений Пронин, Ольга Арнтгольц, Всеволод Болдин, Андрей Егоров, Андрей Исаенко, Екатерина Вишнёвая, Наталья Доля, Ирина Новак, Владимир Осадчий, Анна Сырбу, Анна Топчий, Фатима Горбенко, Нина Антонова, Валентина Ищенко, Татьяна Глущенко, Никита Балев, Тимур Миколюк, Георгий Лещенко (II), София Котлярова, Даниил Якимчук, Даниил Кравченко, Тимофей Ребенок, Александр Пастух, Арсен Босенко, Лариса Яценко
    Описание: 1974 год. Отец маленьких Славы и Сережи погибает в автокатастрофе, а мать, сойдя с ума от горя, уходит из дома. Братьев отдают в детдом, откуда несколько лет спустя семилетнего Сережу забирает богатая московская семья, незадолго до этого потерявшая маленького сына. Слава не может простить младшему брату предательства, долгие годы не общается с ним и всю привязанность переносит на детдомовского друга Кольку.
    Доп. информация: Релиз группа
    Все раздачи сериала
    Сэмпл
    Качество: WEBRip
    Формат: AVI
    Видео кодек: XviD
    Аудио кодек: AC3
    Видео: 720x400 (1.80:1), 25 fps, XviD build 73 ~1548 kbps avg, 0.22 bit/pixel
    Аудио: 48 kHz, AC3 Dolby Digital, 2/0 (L,R) ch, ~192.00 kbps avg

    MI

    General
    Complete name : X:\раздачи\Tri.dorogi.2016.WEB-DLRip.Files-x.Tri.dorogi.2016.WEB-DLRip.Files-x.avi
    Format : AVI
    Format/Info : Audio Video Interleave
    File size : 600 MiB
    Duration : 48mn 38s
    Overall bit rate : 1 725 Kbps
    Writing application : VirtualDubMod 1.5.10.3 | www.virtualdub-fr.org || (build 2550/release)
    Writing library : VirtualDubMod build 2550/release
    Video
    ID : 0
    Format : MPEG-4 Visual
    Format profile : Advanced Simple@L5
    Format settings, BVOP : 1
    Format settings, QPel : No
    Format settings, GMC : No warppoints
    Format settings, Matrix : Custom
    Codec ID : XVID
    Codec ID/Hint : XviD
    Duration : 48mn 38s
    Bit rate : 1 523 Kbps
    Width : 720 pixels
    Height : 400 pixels
    Display aspect ratio : 16:9
    Frame rate : 25.000 fps
    Color space : YUV
    Chroma subsampling : 4:2:0
    Bit depth : 8 bits
    Scan type : Progressive
    Compression mode : Lossy
    Bits/(Pixel*Frame) : 0.212
    Stream size : 530 MiB (88%)
    Writing library : XviD 73
    Audio
    ID : 1
    Format : AC-3
    Format/Info : Audio Coding 3
    Mode extension : CM (complete main)
    Format settings, Endianness : Big
    Codec ID : 2000
    Duration : 48mn 38s
    Bit rate mode : Constant
    Bit rate : 192 Kbps
    Channel(s) : 2 channels
    Channel positions : Front: L R
    Sampling rate : 48.0 KHz
    Frame rate : 31.250 fps (1536 spf)
    Compression mode : Lossy
    Stream size : 66.8 MiB (11%)
    Alignment : Split accross interleaves
    Interleave, duration : 40 ms (1.00 video frame)
    Interleave, preload duration : 500 ms

    Скриншоты

    Скачать .torrent

    Скачать торрент-файл бесплатно и на максимальной скорости!

    Как скачивать? · Что такое торрент? · Рейтинг и ограничения

    !ВНИМАНИЕ!
    Сайт не распространяет и не хранит электронные версии произведений, а занимается лишь лишь предоставлением доступа к создаваемому пользователями каталогу ссылок на торрент-файлы, которые содержат только списки хеш-сумм, убедительная просьба с жалобами обращаться напрямую к пользователю. Файлы для обмена на трекере предоставлены пользователями сайта, и администрация не несёт ответственности за их содержание. Просьба не заливать файлы, защищенные авторскими правами, а также файлы нелегального содержания!


    _________________
    [Профиль] [ЛС]
    Показать сообщения:    
    Ответить на тему

    Текущее время: Сегодня, в 08:00

    Часовой пояс: GMT + 2



    Вы не можете начинать темы
    Вы не можете отвечать на сообщения
    Вы не можете редактировать свои сообщения
    Вы не можете удалять свои сообщения
    Вы не можете голосовать в опросах
    Вы не можете прикреплять файлы к сообщениям
    Вы не можете скачивать файлы