BitTorrentTracker PerecTracker.org
BitTorrentTracker PerecTracker.org
    
Регистрация  ·  Вход
 
 · 
Забыли пароль?

  • Бункер, или Ученые под землей / Сезон: 1 / Серии: 1-20 (20) (Александр Дулерайн, Сергей Корягин) [2006, Фантастика, триллер, комедия, TVRip]

    Ответить на тему
     
    Автор Сообщение

    rechyn

    Создавать темы 24-Апр-2016 18:44

           

    [Цитировать]

    Бункер, или Ученые под землей
    Год выпуска: 2006
    Производство: Россия, ТНТ, Студия Горького
    Жанр: Фантастика, триллер, комедия
    Продолжительность: 20 х ~ 00:24:00
    Субтитры: нет
    Режиссер: Александр Дулерайн, Сергей Корягин
    В ролях: Сергей Афанасьев, Александр Ануров, Владимир Большов, Михаил Гуро, Сергей Корягин, Александра Куликова, Томас Моцкус, Захар Ронжин, Борис Шитиков, Мария Сокова
    Описание:
    Западная Сибирь, 2012 год.
    На глубине 10 километров под землей работает сверхсекретная лаборатория — БУНКЕР.
    Группа выдающихся ученых уже три года проводит в бункере научный эксперимент.
    Но никто из них не знает истинной цели опытов, кроме руководителя проекта.
    С поверхности прибывает новый сотрудник — несмотря на то, что в бункере нет животных, он ветеринар.
    Ученые недоумевают: зачем прислали этого специалиста?
    А тем временем неизвестный распространяет по бункеру эротическую рукопись, которая становится невероятно популярной…
    Семпл / Все раздачи сериала
    Качество видео: TVRip
    Формат видео: AVI
    Видеокодек: DivX
    Аудиокодек: MP3
    Видео: ~ 1100 Kbps, 704x528, 25,000 fps, DivX5, 0.120 bit/pixel
    Аудио: 128 Kbps, 44.1 KHz, 2 ch, MPEG-1 Audio layer 3

    Список серий

    №01 Новенький
    №02 Безответная любовь
    №03 Химическая атака
    №04 Безумный день
    №05 Затишье перед бурей
    №06 Дискотека
    №07 Голос призрака
    №08 Подземный ветер
    №09 Темная история
    №10 Мобилизация
    №11 Да пребудет с нами удача
    №12 Чрезвычайное положение
    №13 Облава
    №14 Осадное положение
    №15 Страшная трагедия
    №16 Атака паука
    №17 Атака Логова
    №18 Страшная развязка
    №19 Самолечение
    №20 Высокое напряжение

    Медиаинфо

    General
    Complete name : E:\Bunker_2006.Bunker.avi
    Format : AVI
    Format/Info : Audio Video Interleave
    File size : 203 MiB
    Duration : 22mn 32s
    Overall bit rate : 1 258 Kbps
    Writing application : Lavf51.12.1
    Video
    ID : 0
    Format : MPEG-4 Visual
    Format profile : Simple@L1
    Format settings, BVOP : No
    Format settings, QPel : No
    Format settings, GMC : No warppoints
    Format settings, Matrix : Default (H.263)
    Codec ID : DX50
    Codec ID/Hint : DivX 5
    Duration : 22mn 32s
    Bit rate : 1 118 Kbps
    Width : 704 pixels
    Height : 528 pixels
    Display aspect ratio : 4:3
    Frame rate : 25.000 fps
    Resolution : 8 bits
    Colorimetry : 4:2:0
    Scan type : Progressive
    Bits/(Pixel*Frame) : 0.120
    Stream size : 180 MiB (89%)
    Writing library : Lavc51.40.4
    Audio
    ID : 1
    Format : MPEG Audio
    Format version : Version 1
    Format profile : Layer 3
    Mode : Joint stereo
    Format_Settings_ModeExtension : MS Stereo
    Codec ID : 55
    Codec ID/Hint : MP3
    Duration : 22mn 32s
    Bit rate mode : Constant
    Bit rate : 128 Kbps
    Channel(s) : 2 channels
    Sampling rate : 44.1 KHz
    Stream size : 20.6 MiB (10%)
    Alignment : Aligned on interleaves
    Interleave, duration : 26 ms (0.65 video frame)
    Writing library : LAME3.97UUUUUUUUUUU

    Скриншоты

    Скачать .torrent

    Скачать торрент-файл бесплатно и на максимальной скорости!

    Как скачивать? · Что такое торрент? · Рейтинг и ограничения

    !ВНИМАНИЕ!
    Сайт не распространяет и не хранит электронные версии произведений, а занимается лишь лишь предоставлением доступа к создаваемому пользователями каталогу ссылок на торрент-файлы, которые содержат только списки хеш-сумм, убедительная просьба с жалобами обращаться напрямую к пользователю. Файлы для обмена на трекере предоставлены пользователями сайта, и администрация не несёт ответственности за их содержание. Просьба не заливать файлы, защищенные авторскими правами, а также файлы нелегального содержания!


    _________________
    [Профиль] [ЛС]
    Показать сообщения:    
    Ответить на тему

    Текущее время: Сегодня, в 08:11

    Часовой пояс: GMT + 2



    Вы не можете начинать темы
    Вы не можете отвечать на сообщения
    Вы не можете редактировать свои сообщения
    Вы не можете удалять свои сообщения
    Вы не можете голосовать в опросах
    Вы не можете прикреплять файлы к сообщениям
    Вы не можете скачивать файлы