Register  ·  Log in
Forgot password?

  • Война Принцессы (Владимир Алеников) [2013 г., драма, DVB]

    Reply to topic
    Author Message


    Post 24-Apr-2016 19:41



    Война Принцессы
    Год выпуска: 2013
    Страна: Россия
    Жанр: драма
    Продолжительность: 01:30:00
    Режиссёр: Владимир Алеников
    В ролях: Екатерина Черепухина, Арам Геворкян, Лянка Грыу, Наталья Ионова (Глюкоза), Артур Смольянинов, Пётр Ульянов, Юрий Вотяков и др.
    Описание: Вымышленный подмосковный городок Росрентген в начале 1990-х годов разделён на части двумя подростковыми бандами: местными и приезжими, главным образом, беженцами с Кавказа. Русская девчонка по кличке Принцесса и армянский паренёк Карен влюбляются друг в друга. Теперь им предстоит отстаивать свою любовь с оружием в руках, вопреки атмосфере вражды и жестокости, царящей вокруг.
    Доп. информация: огромная благодарность xfiles за исходник DVB!

    Качество: DVB
    Формат: MPG
    Видео кодек: MPEG2
    Аудио кодек: MP2
    Видео: MPEG2 Video 720x576 (16:9) 25fps 3300kbps
    Аудио: MPEG Audio 48000Hz stereo 192kbps

    Скриншот c названием фильма


    Подробные технические данные

    GeneralComplete name : Война Принцессы (2013) [НТВ+ Наше новое кино].mpgFormat : MPEG-PSFile size : 2.24 GiBDuration : 1h 30mnOverall bit rate mode : VariableOverall bit rate : 3 563 Kbps
    VideoID : 224 (0xE0)Format : MPEG VideoFormat version : Version 2Format profile : Main@MainFormat settings, BVOP : YesFormat settings, Matrix : CustomFormat settings, GOP : VariableFormat settings, picture struc : FrameDuration : 1h 30mnBit rate mode : VariableBit rate : 3 300 KbpsMaximum bit rate : 15.0 MbpsWidth : 720 pixelsHeight : 576 pixelsDisplay aspect ratio : 16:9Frame rate : 25.000 fpsStandard : PALColor space : YUVChroma subsampling : 4:2:0Bit depth : 8 bitsScan type : InterlacedScan order : Top Field FirstCompression mode : LossyBits/(Pixel*Frame) : 0.318Time code of first frame : 00:00:00:00Time code source : Group of pictures headerStream size : 2.07 GiB (93%)
    AudioID : 192 (0xC0)Format : MPEG AudioFormat version : Version 1Format profile : Layer 2Duration : 1h 30mnBit rate mode : ConstantBit rate : 192 KbpsChannel(s) : 2 channelsSampling rate : 48.0 KHzCompression mode : LossyStream size : 124 MiB (5%)
    Download .torrent

    Download free and at maximum speed!

    How to Download? · What is a torrent? · Ratings and Limitations

    The site does not extend and does not store electronic(digital) versions of products, and only gives access to a reference catalogue created by users on torrent-files which contain only lists of the hash-sums, the earnest entreaty, with complaints(abuse) to access directly to the user. Files for an exchange on tracker are given by users of a site, and the administration does not bear the responsibility for their maintenance. The request to not fill in the files protected by copyrights, and also files of the illegal maintenance!

    [Profile] [PM]
    Display posts from previous:    
    Reply to topic

    The time now is: Today 10:43

    All times are GMT + 3 Hours

    You cannot post new topics in this forum
    You cannot reply to topics in this forum
    You cannot edit your posts in this forum
    You cannot delete your posts in this forum
    You cannot vote in polls in this forum
    You cannot attach files in this forum
    You cannot download files in this forum