BitTorrentTracker PerecTracker.org
BitTorrentTracker PerecTracker.org
    
Регистрация  ·  Вход
 
 · 
Забыли пароль?

  • Война Принцессы (Владимир Алеников) [2013 г., драма, DVB]

    Ответить на тему
     
    Автор Сообщение

    Flirldrerve

    Создавать темы 24-Апр-2016 18:41

           

    [Цитировать]

    Война Принцессы
    Год выпуска: 2013
    Страна: Россия
    Жанр: драма
    Продолжительность: 01:30:00
    Режиссёр: Владимир Алеников
    В ролях: Екатерина Черепухина, Арам Геворкян, Лянка Грыу, Наталья Ионова (Глюкоза), Артур Смольянинов, Пётр Ульянов, Юрий Вотяков и др.
    Описание: Вымышленный подмосковный городок Росрентген в начале 1990-х годов разделён на части двумя подростковыми бандами: местными и приезжими, главным образом, беженцами с Кавказа. Русская девчонка по кличке Принцесса и армянский паренёк Карен влюбляются друг в друга. Теперь им предстоит отстаивать свою любовь с оружием в руках, вопреки атмосфере вражды и жестокости, царящей вокруг.
    Доп. информация: огромная благодарность xfiles за исходник DVB!

    Качество: DVB
    Формат: MPG
    Видео кодек: MPEG2
    Аудио кодек: MP2
    Видео: MPEG2 Video 720x576 (16:9) 25fps 3300kbps
    Аудио: MPEG Audio 48000Hz stereo 192kbps

    Скриншот c названием фильма

    Скриншоты


    Подробные технические данные

    GeneralComplete name : Война Принцессы (2013) [НТВ+ Наше новое кино].mpgFormat : MPEG-PSFile size : 2.24 GiBDuration : 1h 30mnOverall bit rate mode : VariableOverall bit rate : 3 563 Kbps
    VideoID : 224 (0xE0)Format : MPEG VideoFormat version : Version 2Format profile : Main@MainFormat settings, BVOP : YesFormat settings, Matrix : CustomFormat settings, GOP : VariableFormat settings, picture struc : FrameDuration : 1h 30mnBit rate mode : VariableBit rate : 3 300 KbpsMaximum bit rate : 15.0 MbpsWidth : 720 pixelsHeight : 576 pixelsDisplay aspect ratio : 16:9Frame rate : 25.000 fpsStandard : PALColor space : YUVChroma subsampling : 4:2:0Bit depth : 8 bitsScan type : InterlacedScan order : Top Field FirstCompression mode : LossyBits/(Pixel*Frame) : 0.318Time code of first frame : 00:00:00:00Time code source : Group of pictures headerStream size : 2.07 GiB (93%)
    AudioID : 192 (0xC0)Format : MPEG AudioFormat version : Version 1Format profile : Layer 2Duration : 1h 30mnBit rate mode : ConstantBit rate : 192 KbpsChannel(s) : 2 channelsSampling rate : 48.0 KHzCompression mode : LossyStream size : 124 MiB (5%)
    Скачать .torrent

    Скачать торрент-файл бесплатно и на максимальной скорости!

    Как скачивать? · Что такое торрент? · Рейтинг и ограничения

    !ВНИМАНИЕ!
    Сайт не распространяет и не хранит электронные версии произведений, а занимается лишь лишь предоставлением доступа к создаваемому пользователями каталогу ссылок на торрент-файлы, которые содержат только списки хеш-сумм, убедительная просьба с жалобами обращаться напрямую к пользователю. Файлы для обмена на трекере предоставлены пользователями сайта, и администрация не несёт ответственности за их содержание. Просьба не заливать файлы, защищенные авторскими правами, а также файлы нелегального содержания!


    _________________
    [Профиль] [ЛС]
    Показать сообщения:    
    Ответить на тему

    Текущее время: Сегодня, в 02:39

    Часовой пояс: GMT + 2



    Вы не можете начинать темы
    Вы не можете отвечать на сообщения
    Вы не можете редактировать свои сообщения
    Вы не можете удалять свои сообщения
    Вы не можете голосовать в опросах
    Вы не можете прикреплять файлы к сообщениям
    Вы не можете скачивать файлы