BitTorrentTracker PerecTracker.org
BitTorrentTracker PerecTracker.org
    
Регистрация  ·  Вход
 
 · 
Забыли пароль?

  • Ларри Краун / Larry Crowne (Том Хэнкс / Tom Hanks) [2011, США, драма, мелодрама, комедия, BDRip] Dub + Original Eng + Sub Rus, Eng

    Ответить на тему
     
    Автор Сообщение

    Light

    Создавать темы 24-Апр-2016 18:41

           

    [Цитировать]

    Ларри Краун
    Larry Crowne
    -Страна: США
    Жанр: драма, мелодрама, комедия
    Год выпуска: 2011
    Продолжительность: 01:38:36
    Перевод: Профессиональный (дублированный)
    Cубтитры: русские, английские
    Оригинальная аудиодорожка: английский-Режиссер: Том Хэнкс / Tom Hanks-В ролях: Том Хэнкс, Джулия Робертс, Сара Махони, Роксана Ортега, Рэндолл Парк, Брэйди Рубин, Алекс Кихано, Тина Хуанг, E-Kan Soong, Тарина Паунси.-Описание: До своего увольнения приветливый и любезный Ларри Краун был преуспевающим командным руководителем крупной компании, в которой он работал после службы на флоте. Под тяжестью ипотеки и будучи в неясности от того, что делать с внезапно появившимися свободными днями, Ларри направляется в местный колледж, чтобы начать все сначала.
    Там он становится частью разношерстного сообщества изгоев и вечных неудачников, находящихся в постоянном поиске лучшего будущего для себя… и часто рассекающих по городским окрестностям на самокатах. На занятиях по технике публичных выступлений Ларри порождает неожиданную давку на своего учителя Мерседес Тэйнот, потерявшую столько же страсти к обучению, сколько у нее было ее для собственного мужа. Простой парень, у которого есть все основания думать, что его жизнь остановилась, усвоит неожиданный урок: когда Вы считаете, что все возможные ценности уже прошли мимо Вас, Вы можете обнаружить повод, чтобы жить.-Релиз от:
    Автор рипа: MOSFET-Качество видео: BDRip (источник: HDBits | Blu-ray Disc | 1080p)
    Формат видео: AVI | Sample
    Видео: 720x304 (2.37:1), 23.976 fps, XviD build 64 ~2256 kbps avg, 0.43 bit/pixel
    Аудио 1: 48 kHz, AC3 Dolby Digital, 3/2 (L,C,R,l,r) + LFE ch, ~448.00 kbps avg | DUB
    Аудио 2: 48 kHz, AC3 Dolby Digital, 3/2 (L,C,R,l,r) + LFE ch, ~448.00 kbps avg | Original
    Субтитры: русские полные R5, русские полные voronine, английские полные SDH | внешние srt*

    Инфо

    Формат : AVI
    Формат/Информация : Audio Video Interleave
    Профиль формата : OpenDML
    Размер файла : 2,18 Гбайт
    Продолжительность : 1 ч. 38 м.
    Общий поток : 3170 Кбит/сек
    Название фильма : Ларри Краун / Larry Crowne (2011) BDRip
    Режиссёр : MOSFET
    Программа кодирования : VirtualDubMod 1.5.10.2 (build 2542/release)
    Авторское право : http://forum.hqclub.net
    Примечание : 04.11.2011
    Видео
    Идентификатор : 0
    Формат : MPEG-4 Visual
    Профиль формата : Advanced Simple@L5
    Параметр BVOP формата : Да
    Параметр QPel формата : Нет
    Параметр GMC формата : Без точки перехода
    Параметр матрицы формата : Выборочная
    Идентификатор кодека : XVID
    Идентификатор кодека/Подсказка : XviD
    Продолжительность : 1 ч. 38 м.
    Битрейт : 2256 Кбит/сек
    Ширина : 720 пикселей
    Высота : 304 пикселя
    Соотношение сторон : 2,35:1
    Частота кадров : 23,976 (23976/1000) кадра/сек
    Цветовое пространство : YUV
    Субдискретизация насыщенности : 4:2:0
    Битовая глубина : 8 бит
    Тип развёртки : Прогрессивная
    Метод сжатия : С потерями
    Бит/(Пиксели*Кадры) : 0.430
    Размер потока : 1,55 Гбайт (71%)
    Библиотека кодирования : XviD 64
    Аудио #1
    Идентификатор : 1
    Формат : AC-3
    Формат/Информация : Audio Coding 3
    Расширение режима : CM (complete main)
    Параметр Endianness формата : Big
    Идентификатор кодека : 2000
    Продолжительность : 1 ч. 38 м.
    Вид битрейта : Постоянный
    Битрейт : 448 Кбит/сек
    Каналы : 6 каналов
    Расположение каналов : Front: L C R, Side: L R, LFE
    Частота : 48,0 КГц
    Частота кадров : 31,250 кадров/сек (1536 spf)
    Метод сжатия : С потерями
    Размер потока : 316 Мбайт (14%)
    Выравнивание : Разделение по промежуткам
    Продолжительность промежутка : 42 мс. (1,00 видеокадр)
    Время предзагрузки промежутка : 500 мс.
    Аудио #2
    Идентификатор : 2
    Формат : AC-3
    Формат/Информация : Audio Coding 3
    Расширение режима : CM (complete main)
    Параметр Endianness формата : Big
    Идентификатор кодека : 2000
    Продолжительность : 1 ч. 38 м.
    Вид битрейта : Постоянный
    Битрейт : 448 Кбит/сек
    Каналы : 6 каналов
    Расположение каналов : Front: L C R, Side: L R, LFE
    Частота : 48,0 КГц
    Частота кадров : 31,250 кадров/сек (1536 spf)
    Метод сжатия : С потерями
    Размер потока : 316 Мбайт (14%)
    Выравнивание : Разделение по промежуткам
    Продолжительность промежутка : 42 мс. (1,00 видеокадр)
    Время предзагрузки промежутка : 500 мс.

    Скриншоты

    Скачать .torrent

    Скачать торрент-файл бесплатно и на максимальной скорости!

    Как скачивать? · Что такое торрент? · Рейтинг и ограничения

    !ВНИМАНИЕ!
    Сайт не распространяет и не хранит электронные версии произведений, а занимается лишь лишь предоставлением доступа к создаваемому пользователями каталогу ссылок на торрент-файлы, которые содержат только списки хеш-сумм, убедительная просьба с жалобами обращаться напрямую к пользователю. Файлы для обмена на трекере предоставлены пользователями сайта, и администрация не несёт ответственности за их содержание. Просьба не заливать файлы, защищенные авторскими правами, а также файлы нелегального содержания!


    _________________
    [Профиль] [ЛС]
    Показать сообщения:    
    Ответить на тему

    Текущее время: Сегодня, в 07:59

    Часовой пояс: GMT + 2



    Вы не можете начинать темы
    Вы не можете отвечать на сообщения
    Вы не можете редактировать свои сообщения
    Вы не можете удалять свои сообщения
    Вы не можете голосовать в опросах
    Вы не можете прикреплять файлы к сообщениям
    Вы не можете скачивать файлы