BitTorrentTracker PerecTracker.org
BitTorrentTracker PerecTracker.org
    
Регистрация  ·  Вход
 
 · 
Забыли пароль?

  • Невский / Серии: 1-30 из 30 (Андрей Коршунов, Алексей Павлов (V), Игорь Драка) [2014, Боевик, криминал, HDTVRip]

    Ответить на тему
     
    Автор Сообщение

    rechyn

    Создавать темы 24-Апр-2016 18:34

           

    [Цитировать]

    НевскийГод выпуска: 2014
    Производство: Россия, Кинокомпания "Триикс Медиа"
    Жанр: Боевик, криминал
    Продолжительность: 00:44:00
    Субтитры: нет
    Режиссер: Андрей Коршунов, Алексей Павлов (V), Игорь Драка
    В ролях: Антон Васильев (III), Андрей Гульнев, Сергей Кошонин, Дмитрий Паламарчук, Мария Капустинская, Александр Кудренко, Александр Саюталин, Николай Смирнов (V), Наталья Дворецкая, Юрий Архангельский, Николай Горшков, Антон Багров, Юрий Филиппов (II), Георгий Маришин, Виталий Горев, Андрей Перович, Андрей Шимко, Сергей Гарусов, Антон Успенский, Анастасия Аристова
    Описание: Капитан полиции Павел Семенов служит в одном из спальных районов Санкт-Петербурга. Павел привык разнимать пьяные драки и в одиночку входить в притоны наркоманов, чтобы провести очередной арест. Он знает, что если будет думать и рассуждать, его просто убьют. И привык сначала действовать, а потом разбираться, потому что очень хочет остаться в живых, ведь его дома ждут жена Юля и сын Саша… Рискуя жизнью, он спасает дочь бизнесмена. В благодарность Латышев, отец девочки, содействует переводу Павла на Невский проспект, в самый центр большого города, где служить престижно и выгодно… Но отношения в новом коллективе у Павла не складываются. Большинство коллег заняты вопросами личного обогащения, борьба с преступностью их интересует в последнюю очередь. И вскоре Павел начинает подозревать, что его перевод в Центральный район был осуществлен Латышевым с каким-то далеко идущими планами. А когда Павел выходит на след таинственного киллера по кличке Рафаэль, все окончательно запутывается. Но в трудной ситуации Павел всегда может положиться на своих друзей из спального района – бывшего напарника Кирилла Назарова и криминального авторитета Алексея Фомина...
    Релиз группа
    Все раздачи сериала
    Сэмпл
    Качество: HDTVRip
    Формат: AVI
    Видео кодек: XviD
    Аудио кодек: AC3
    Видео: 720x400 (1.80:1), 25 fps, XviD build 73 ~1448 kbps avg, 0.22 bit/pixel
    Аудио: 48 kHz, AC3 Dolby Digital, 2/0 (L,R) ch, ~192.00 kbps avg

    MI

    General
    Complete name : X:\раздачи\Nevskij.2015.HDTVRip.Files-x.Nevskij.2015.HDTVRip.Files-x.avi
    Format : AVI
    Format/Info : Audio Video Interleave
    File size : 550 MiB
    Duration : 43mn 53s
    Overall bit rate : 1 754 Kbps
    Writing application : VirtualDubModRus 1.5.10.2 (build 2542/release)
    Writing library : VirtualDubMod build 2542/release
    Video
    ID : 0
    Format : MPEG-4 Visual
    Format profile : Advanced Simple@L5
    Format settings, BVOP : 1
    Format settings, QPel : No
    Format settings, GMC : No warppoints
    Format settings, Matrix : Custom
    Codec ID : XVID
    Codec ID/Hint : XviD
    Duration : 43mn 53s
    Bit rate : 1 552 Kbps
    Width : 720 pixels
    Height : 400 pixels
    Display aspect ratio : 16:9
    Frame rate : 25.000 fps
    Color space : YUV
    Chroma subsampling : 4:2:0
    Bit depth : 8 bits
    Scan type : Progressive
    Compression mode : Lossy
    Bits/(Pixel*Frame) : 0.216
    Stream size : 487 MiB (88%)
    Writing library : XviD 73
    Audio
    ID : 1
    Format : AC-3
    Format/Info : Audio Coding 3
    Mode extension : CM (complete main)
    Format settings, Endianness : Big
    Codec ID : 2000
    Duration : 43mn 53s
    Bit rate mode : Constant
    Bit rate : 192 Kbps
    Channel(s) : 2 channels
    Channel positions : Front: L R
    Sampling rate : 48.0 KHz
    Frame rate : 31.250 fps (1536 spf)
    Compression mode : Lossy
    Stream size : 60.3 MiB (11%)
    Alignment : Split accross interleaves
    Interleave, duration : 40 ms (1.00 video frame)
    Interleave, preload duratio : 500 ms

    Скриншоты


    Скачать .torrent

    Скачать торрент-файл бесплатно и на максимальной скорости!

    Как скачивать? · Что такое торрент? · Рейтинг и ограничения

    !ВНИМАНИЕ!
    Сайт не распространяет и не хранит электронные версии произведений, а занимается лишь лишь предоставлением доступа к создаваемому пользователями каталогу ссылок на торрент-файлы, которые содержат только списки хеш-сумм, убедительная просьба с жалобами обращаться напрямую к пользователю. Файлы для обмена на трекере предоставлены пользователями сайта, и администрация не несёт ответственности за их содержание. Просьба не заливать файлы, защищенные авторскими правами, а также файлы нелегального содержания!


    _________________
    [Профиль] [ЛС]
    Показать сообщения:    
    Ответить на тему

    Текущее время: Сегодня, в 01:07

    Часовой пояс: GMT + 2



    Вы не можете начинать темы
    Вы не можете отвечать на сообщения
    Вы не можете редактировать свои сообщения
    Вы не можете удалять свои сообщения
    Вы не можете голосовать в опросах
    Вы не можете прикреплять файлы к сообщениям
    Вы не можете скачивать файлы