BitTorrentTracker PerecTracker.org
BitTorrentTracker PerecTracker.org
    
Регистрация  ·  Вход
 
 · 
Забыли пароль?

  • Последний мент / сезон: 2 / Серии: 1-24 из 24 (Михаил Жерневский) [2015, Комедия, драма, детектив, WEBRip]

    Ответить на тему
     
    Автор Сообщение

    rechyn

    Создавать темы 24-Апр-2016 18:30

           

    [Цитировать]

    Последний ментГод выпуска: 2015
    Производство: Россия, 5-й канал Петербург
    Жанр: Комедия, драма, детектив
    Продолжительность: 00:40:00
    Субтитры: нет
    Режиссёр: Михаил Жерневский
    В ролях: Гоша Куценко, Наталия Вдовина, Анатолий Руденко, Виктория Корлякова, Полина Куценко, Сергей Удовик, Александр Борисов (II), Лукерья Ильяшенко, Ксения Ефремова, Вероника Айги, Лада Негруль, Сергей Фролов (IV)
    Описание: Капитан милиции Алексей Дивов открывает глаза на больничной койке и узнает, что полученное на задании ранение уложило его в кому… на 20 лет. С 1995-года мир изменился. Милиция стала полицией, рэкет, «крыши», «стрелки» и братки остались в прошлом, в продаже нет спирта «Рояль», вокруг сенсорные телефоны с выходом в Интернет, молодые опера борются с преступностью с помощью современных гаджетов, а в обеденный перерыв могут перекусить какими-то роллами и суши с помощью «барабанных палочек». Дочь Юля выросла, а жена Лиза замужем за другим.
    Доп. информация: Релиз группа
    Все раздачи сериала
    Сэмпл
    Качество: WEBRip
    Формат: AVI
    Видео кодек: XviD
    Аудио кодек: AC3
    Видео: 720x400 (1.80:1), 25 fps, XviD build 73 ~1548 kbps avg, 0.22 bit/pixel
    Аудио: 48 kHz, AC3 Dolby Digital, 2/0 (L,R) ch, ~192.00 kbps avg

    MI

    General
    Complete name : X:\раздачи\Последний мент-2.2015.WEB-DLRip.Files-x.Последний мент-2.2015.WEB-DLRip.Files-x.avi
    Format : AVI
    Format/Info : Audio Video Interleave
    File size : 500 MiB
    Duration : 37mn 48s
    Overall bit rate : 1 848 Kbps
    Writing application : VirtualDubMod 1.5.10.3 | www.virtualdub-fr.org || (build 2550/release)
    Writing library : VirtualDubMod build 2550/release
    Video
    ID : 0
    Format : MPEG-4 Visual
    Format profile : Advanced Simple@L5
    Format settings, BVOP : 1
    Format settings, QPel : No
    Format settings, GMC : No warppoints
    Format settings, Matrix : Custom
    Codec ID : XVID
    Codec ID/Hint : XviD
    Duration : 37mn 48s
    Bit rate : 1 647 Kbps
    Width : 720 pixels
    Height : 400 pixels
    Display aspect ratio : 16:9
    Frame rate : 25.000 fps
    Color space : YUV
    Chroma subsampling : 4:2:0
    Bit depth : 8 bits
    Scan type : Progressive
    Compression mode : Lossy
    Bits/(Pixel*Frame) : 0.229
    Stream size : 445 MiB (89%)
    Writing library : XviD 73
    Audio
    ID : 1
    Format : AC-3
    Format/Info : Audio Coding 3
    Mode extension : CM (complete main)
    Format settings, Endianness : Big
    Codec ID : 2000
    Duration : 37mn 48s
    Bit rate mode : Constant
    Bit rate : 192 Kbps
    Channel(s) : 2 channels
    Channel positions : Front: L R
    Sampling rate : 48.0 KHz
    Frame rate : 31.250 fps (1536 spf)
    Compression mode : Lossy
    Stream size : 51.9 MiB (10%)
    Alignment : Split accross interleaves
    Interleave, duration : 40 ms (1.00 video frame)
    Interleave, preload duratio : 500 ms

    Скриншоты

    Скачать .torrent

    Скачать торрент-файл бесплатно и на максимальной скорости!

    Как скачивать? · Что такое торрент? · Рейтинг и ограничения

    !ВНИМАНИЕ!
    Сайт не распространяет и не хранит электронные версии произведений, а занимается лишь лишь предоставлением доступа к создаваемому пользователями каталогу ссылок на торрент-файлы, которые содержат только списки хеш-сумм, убедительная просьба с жалобами обращаться напрямую к пользователю. Файлы для обмена на трекере предоставлены пользователями сайта, и администрация не несёт ответственности за их содержание. Просьба не заливать файлы, защищенные авторскими правами, а также файлы нелегального содержания!


    _________________
    [Профиль] [ЛС]
    Показать сообщения:    
    Ответить на тему

    Текущее время: Сегодня, в 02:56

    Часовой пояс: GMT + 2



    Вы не можете начинать темы
    Вы не можете отвечать на сообщения
    Вы не можете редактировать свои сообщения
    Вы не можете удалять свои сообщения
    Вы не можете голосовать в опросах
    Вы не можете прикреплять файлы к сообщениям
    Вы не можете скачивать файлы