BitTorrentTracker PerecTracker.org
BitTorrentTracker PerecTracker.org
    
Регистрация  ·  Вход
 
 · 
Забыли пароль?

  • Маргарита Назарова / Серии: 1-16 из 16 (Константин Максимов ) [2016, Россия, Биография, мелодрама, WEBRip]

    Ответить на тему
     
    Автор Сообщение

    rechyn

    Создавать темы 24-Апр-2016 18:28

           

    [Цитировать]

    Маргарита НазароваПроизводитель : Россия, Пиманов и Партнеры, ОДА-Фильм
    Жанр: Биография, мелодрама
    Год выпуска: 2016
    Продолжительность: 45 мин.
    Cубтитры: нет
    Режиссер: Константин Максимов
    В ролях: Ольга Погодина, Андрей Чернышов, Николай Добрынин, Андрей Егоров, Паоло Контичини, Алёна Ковалёва, Наталья Панова (II), Александр Песков, Владимир Качан, Маркус Кунце, Ирина Ильинская, Георгий Кульков, Пётр Романов, Валентина Кошкина, Валентин Валл, Иван Иванов (V), Арина Иванова, Виктор Конухин, Екатерина Мышлянова, Эльдар Трамов, Игорь Штернберг, Михаил Станкевич, Николай Скурт
    Описание: Художественный фильм о легендарной дрессировщице и актрисе Маргарите Назаровой, которая прошла путь от жизни в немецком плену и презрения со стороны окружения до всемирно известной дрессировщицы и актрисы. Жизненный путь Маргариты Назаровой не был простым и лёгким. Встречались и недруги, и завистники, но не обошла стороной любовь и верные друзья. Её жизнь — ЧУДО, которое Маргарита Назарова подарила всем нам… Это чудо: её роли, её аттракционы, её любовь… к цирку, к мужу, к Родине…
    Доп. информация: Релиз группа
    Все раздачи сериала
    Сэмпл
    Качество: WEBRip
    Формат: AVI
    Видео кодек: XviD
    Аудио кодек: AC3
    Видео: 720x400 (1.80:1), 25 fps, XviD build 73 ~1486 kbps avg, 0.22 bit/pixel
    Аудио: 48 kHz, AC3 Dolby Digital, 2/0 (L,R) ch, ~192.00 kbps avg

    MI

    General
    Complete name : X:\раздачи\Margarita.Nazarova.2016.WEB-DLRip.Files-x.Margarita.Nazarova.2016.WEB-DLRip.Files-x.avi
    Format : AVI
    Format/Info : Audio Video Interleave
    File size : 600 MiB
    Duration : 51mn 56s
    Overall bit rate : 1 616 Kbps
    Writing application : VirtualDubMod 1.5.10.3 | www.virtualdub-fr.org || (build 2550/release)
    Writing library : VirtualDubMod build 2550/release
    Video
    ID : 0
    Format : MPEG-4 Visual
    Format profile : Advanced Simple@L5
    Format settings, BVOP : 1
    Format settings, QPel : No
    Format settings, GMC : No warppoints
    Format settings, Matrix : Custom
    Codec ID : XVID
    Codec ID/Hint : XviD
    Duration : 51mn 56s
    Bit rate : 1 414 Kbps
    Width : 720 pixels
    Height : 400 pixels
    Display aspect ratio : 16:9
    Frame rate : 25.000 fps
    Color space : YUV
    Chroma subsampling : 4:2:0
    Bit depth : 8 bits
    Scan type : Progressive
    Compression mode : Lossy
    Bits/(Pixel*Frame) : 0.196
    Stream size : 525 MiB (88%)
    Writing library : XviD 73
    Audio
    ID : 1
    Format : AC-3
    Format/Info : Audio Coding 3
    Mode extension : CM (complete main)
    Format settings, Endianness : Big
    Codec ID : 2000
    Duration : 51mn 56s
    Bit rate mode : Constant
    Bit rate : 192 Kbps
    Channel(s) : 2 channels
    Channel positions : Front: L R
    Sampling rate : 48.0 KHz
    Frame rate : 31.250 fps (1536 spf)
    Compression mode : Lossy
    Stream size : 71.3 MiB (12%)
    Alignment : Split accross interleaves
    Interleave, duration : 40 ms (1.00 video frame)
    Interleave, preload duratio : 500 ms

    Скриншоты

    Скачать .torrent

    Скачать торрент-файл бесплатно и на максимальной скорости!

    Как скачивать? · Что такое торрент? · Рейтинг и ограничения

    !ВНИМАНИЕ!
    Сайт не распространяет и не хранит электронные версии произведений, а занимается лишь лишь предоставлением доступа к создаваемому пользователями каталогу ссылок на торрент-файлы, которые содержат только списки хеш-сумм, убедительная просьба с жалобами обращаться напрямую к пользователю. Файлы для обмена на трекере предоставлены пользователями сайта, и администрация не несёт ответственности за их содержание. Просьба не заливать файлы, защищенные авторскими правами, а также файлы нелегального содержания!


    _________________
    [Профиль] [ЛС]
    Показать сообщения:    
    Ответить на тему

    Текущее время: Сегодня, в 02:41

    Часовой пояс: GMT + 2



    Вы не можете начинать темы
    Вы не можете отвечать на сообщения
    Вы не можете редактировать свои сообщения
    Вы не можете удалять свои сообщения
    Вы не можете голосовать в опросах
    Вы не можете прикреплять файлы к сообщениям
    Вы не можете скачивать файлы