BitTorrentTracker PerecTracker.org
BitTorrentTracker PerecTracker.org
    
Регистрация  ·  Вход
 
 · 
Забыли пароль?

  • Вишневое дерево / Cherry Tree (Дэвид Китинг / David Keating) [2015, Ирландия, Ужасы, HDRip] DVO (Parovoz Production) + Original Eng

    Ответить на тему
     
    Автор Сообщение

    Light

    Создавать темы 24-Апр-2016 10:17

           

    [Цитировать]

    Вишневое дерево / Cherry TreeСтрана: Ирландия
    Жанр: Ужасы
    Год выпуска: 2015
    Продолжительность: 01:25:46-Перевод: Любительский (двухголосый закадровый) - [Parovoz Production]
    Оригинальная аудиодорожка: английский
    Cубтитры: нет-Режиссер: Дэвид Китинг / David Keating-В ролях: Наоми Баттрик, Патрик Гибсон, Сэм Хэзелдайн, Валери О’Коннор, Минни Фиппс, Анна Уолтон-Описание: Когда любимого папу нашей героини подкосила смертельная болезнь, весь мир обрушился на её голову. Её в эти трудные дни сильно поддержала Сиисси Янг - школьный учитель, в лице которой девочка нашла некоторое подобие материнской заботы, которой ей так не хватало. Но наша героиня и не догадывается, что Сисси кроме работы в школе является главенствующей в шабаше ведьмой, много веков подпитывающей свои силы с помощью тайного ведьминского ритуала с вишневым деревом, - который дает жизненную силу умирающим и мертвецам. И тогда старая ведьма предлагает девочке тайную сделку в обмен на излечение её отца....- -Качество видео: HDRip [Рип с BDRip 720p]
    Формат видео: AVI-Видео: 720x384 (1.85:1), 23.976 fps, XviD build 73, 1886 Kbps
    Аудио: 48.0 KHz, AC3 Dolby Digital, 2 ch, 192 Kbps [rus]
    Аудио 2: 48.0 KHz, AC3 Dolby Digital, 2 ch, 192 Kbps [eng]-Релиз без рекламы-

    MediaInfo

    General
    Complete name : Downloads\Cherry.Tree.2015.L2.HDRip.avi
    Format : AVI
    Format/Info : Audio Video Interleave
    File size : 1.37 GiB
    Duration : 1h 25mn
    Overall bit rate : 2 285 Kbps
    Writing application : VirtualDubMod 1.5.10.3 | www.virtualdub-fr.org || (build 2550/release)
    Writing library : VirtualDubMod build 2550/release
    Video #0
    ID : 0
    Format : MPEG-4 Visual
    Format profile : Advanced Simple@L5
    Format settings, BVOP : 1
    Format settings, QPel : No
    Format settings, GMC : No warppoints
    Format settings, Matrix : Custom
    Codec ID : XVID
    Codec ID/Hint : XviD
    Duration : 1h 25mn
    Bit rate : 1 886 Kbps
    Width : 720 pixels
    Height : 384 pixels
    Display aspect ratio : 1.85:1
    Frame rate : 23.976 fps
    Color space : YUV
    Chroma subsampling : 4:2:0
    Bit depth : 8 bits
    Scan type : Progressive
    Compression mode : Lossy
    Bits/(Pixel*Frame) : 0.285
    Stream size : 1.13 GiB (83%)
    Writing library : XviD 73
    Audio #1
    ID : 1
    Format : AC-3
    Format/Info : Audio Coding 3
    Mode extension : CM (complete main)
    Format settings, Endianness : Big
    Codec ID : 2000
    Duration : 1h 25mn
    Bit rate mode : Constant
    Bit rate : 192 Kbps
    Channel(s) : 2 channels
    Channel positions : Front: L R
    Sampling rate : 48.0 KHz
    Bit depth : 16 bits
    Compression mode : Lossy
    Stream size : 118 MiB (8%)
    Alignment : Split accross interleaves
    Interleave, duration : 42 ms (1.00 video frame)
    Interleave, preload duration : 500 ms
    Audio #2
    ID : 2
    Format : AC-3
    Format/Info : Audio Coding 3
    Mode extension : CM (complete main)
    Format settings, Endianness : Big
    Codec ID : 2000
    Duration : 1h 25mn
    Bit rate mode : Constant
    Bit rate : 192 Kbps
    Channel(s) : 2 channels
    Channel positions : Front: L R
    Sampling rate : 48.0 KHz
    Bit depth : 16 bits
    Compression mode : Lossy
    Stream size : 118 MiB (8%)
    Alignment : Split accross interleaves
    Interleave, duration : 42 ms (1.00 video frame)
    Interleave, preload duration : 500 ms

    Скриншот c названием фильма

    Скриншоты

    Скачать .torrent

    Скачать торрент-файл бесплатно и на максимальной скорости!

    Как скачивать? · Что такое торрент? · Рейтинг и ограничения

    !ВНИМАНИЕ!
    Сайт не распространяет и не хранит электронные версии произведений, а занимается лишь лишь предоставлением доступа к создаваемому пользователями каталогу ссылок на торрент-файлы, которые содержат только списки хеш-сумм, убедительная просьба с жалобами обращаться напрямую к пользователю. Файлы для обмена на трекере предоставлены пользователями сайта, и администрация не несёт ответственности за их содержание. Просьба не заливать файлы, защищенные авторскими правами, а также файлы нелегального содержания!


    _________________
    [Профиль] [ЛС]
    Показать сообщения:    
    Ответить на тему

    Текущее время: Сегодня, в 14:10

    Часовой пояс: GMT + 2



    Вы не можете начинать темы
    Вы не можете отвечать на сообщения
    Вы не можете редактировать свои сообщения
    Вы не можете удалять свои сообщения
    Вы не можете голосовать в опросах
    Вы не можете прикреплять файлы к сообщениям
    Вы не можете скачивать файлы