BitTorrentTracker PerecTracker.org
BitTorrentTracker PerecTracker.org
    
Регистрация  ·  Вход
 
 · 
Забыли пароль?

  • Крампус / Krampus (Майкл Догерти / Michael Dougherty) [2015, США, Новая Зеландия, ужасы, фэнтези, комедия, BDRip-AVC] Dub + Original (eng) + Sub (rus, eng)

    Ответить на тему
     
    Автор Сообщение

    Light

    Создавать темы 23-Апр-2016 21:49

           

    [Цитировать]

    Крампус
    Krampus
    «В этом году Санта Клаус не придёт»

    Страна: США, Новая Зеландия
    Жанр: ужасы, фэнтези, комедия
    Год выпуска: 2015
    Продолжительность: 01:37:40
    Перевод: Профессиональный (полное дублирование) [Лицензия Blu-ray CEE]
    Субтитры: русские (форсированные, полные), английские (форсированные, полные, SDH)
    Оригинальная аудиодорожка: Английский
    Режиссер: Майкл Догерти / Michael Dougherty
    В ролях: Эмджей Энтони, Адам Скотт, Тони Коллетт, Стефания Оуэн, Криста Штадлер, Кончата Феррелл, Эллисон Толман, Дэвид Кокнер, Маверик Флэк, Куеени Сэмюэл, Лоло Оуэн, Sage Hunefeld
    Описание:
    История о демоне, который во время Рождества выискивает непослушных детей, чтобы наказать их.
    Автор рипа: Stalker oK
    Сэмпл
    Качество видео: BDRip-AVC [HDCLUB / Blu-ray Disc / 1080p]
    Формат видео: MKV
    Видео кодек: AVC
    Аудио кодек: AC3
    Видео: 2301 Кбит/сек, 1108*464 (2,40:1), в 23,976 (24000/1001) кадра/сек, AVC
    Аудио #1: русский, 448 Кбит/сек, 48,0 КГц, 6 каналов, AC-3
    Аудио #2: английский, 448 Кбит/сек, 48,0 КГц, 6 каналов, AC-3
    Навигация по главам: есть

    MediaInfo

    Общее
    Уникальный идентификатор : 184469203505213336864176020010720213013 (0x8AC779EDCCE37CE58E3A4ABCE4D6B815)
    Полное имя : M:\1Rips\Krampus\Krampus.2015.BDRip-AVC.Dub.2.18Gb..stalkerok.new-team.mkv
    Формат : Matroska
    Версия формата : Version 4 / Version 2
    Размер файла : 2,18 Гбайт
    Продолжительность : 1 ч. 37 м.
    Общий поток : 3199 Кбит/сек
    Название фильма : Krampus (2015) (New-Team) (Rip by Stalker oK)
    Дата кодирования : UTC 2016-04-23 09:55:19
    Программа кодирования : mkvmerge v8.6.1 ('Flying') 64bit
    Библиотека кодирования : libebml v1.3.3 + libmatroska v1.4.4
    Видео
    Идентификатор : 1
    Формат : AVC
    Формат/Информация : Advanced Video Codec
    Профиль формата : High@L4.1
    Параметр CABAC формата : Да
    Параметр ReFrames формата : 14 кадров
    Идентификатор кодека : V_MPEG4/ISO/AVC
    Продолжительность : 1 ч. 37 м.
    Битрейт : 2301 Кбит/сек
    Ширина : 1108 пикселей
    Высота : 464 пикселя
    Соотношение сторон : 2,40:1
    Режим частоты кадров : Постоянный
    Частота кадров : 23,976 (24000/1001) кадра/сек
    Цветовое пространство : YUV
    Субдискретизация насыщенности : 4:2:0
    Битовая глубина : 8 бит
    Тип развёртки : Прогрессивная
    Бит/(Пиксели*Кадры) : 0.187
    Размер потока : 1,57 Гбайт (72%)
    Заголовок : Krampus (2015) (New-Team) (Rip by Stalker oK)
    Библиотека кодирования : x264 core 148 r2665kMod a01e339
    Настройки программы : cabac=1 / ref=14 / deblock=1:-3:-3 / analyse=0x3:0x133 / me=umh / subme=11 / psy=1 / fade_compensate=0.00 / psy_rd=1.00:0.05 / mixed_ref=1 / me_range=48 / chroma_me=1 / trellis=2 / 8x8dct=1 / cqm=0 / deadzone=21,11 / fast_pskip=0 / chroma_qp_offset=-3 / threads=12 / lookahead_threads=3 / sliced_threads=0 / nr=0 / decimate=0 / interlaced=0 / bluray_compat=0 / constrained_intra=0 / fgo=0 / bframes=14 / b_pyramid=2 / b_adapt=2 / b_bias=0 / direct=3 / weightb=1 / open_gop=0 / weightp=2 / keyint=240 / keyint_min=23 / scenecut=40 / intra_refresh=0 / rc_lookahead=60 / rc=2pass / mbtree=0 / bitrate=2301 / ratetol=1.0 / qcomp=0.70 / qpmin=0 / qpmax=69 / qpstep=4 / cplxblur=20.0 / qblur=0.5 / vbv_maxrate=50000 / vbv_bufsize=62500 / nal_hrd=none / filler=0 / ip_ratio=1.40 / pb_ratio=1.30 / aq=3:0.95
    Default : Да
    Forced : Нет
    Аудио #1
    Идентификатор : 2
    Формат : AC-3
    Формат/Информация : Audio Coding 3
    Расширение режима : CM (complete main)
    Параметр Endianness формата : Big
    Идентификатор кодека : A_AC3
    Продолжительность : 1 ч. 37 м.
    Вид битрейта : Постоянный
    Битрейт : 448 Кбит/сек
    Каналы : 6 каналов
    Расположение каналов : Front: L C R, Side: L R, LFE
    Частота : 48,0 КГц
    Частота кадров : 31,250 кадров/сек (1536 spf)
    Метод сжатия : С потерями
    Размер потока : 313 Мбайт (14%)
    Язык : Russian
    Default : Да
    Forced : Нет
    Аудио #2
    Идентификатор : 3
    Формат : AC-3
    Формат/Информация : Audio Coding 3
    Расширение режима : CM (complete main)
    Параметр Endianness формата : Big
    Идентификатор кодека : A_AC3
    Продолжительность : 1 ч. 37 м.
    Вид битрейта : Постоянный
    Битрейт : 448 Кбит/сек
    Каналы : 6 каналов
    Расположение каналов : Front: L C R, Side: L R, LFE
    Частота : 48,0 КГц
    Частота кадров : 31,250 кадров/сек (1536 spf)
    Метод сжатия : С потерями
    Размер потока : 313 Мбайт (14%)
    Язык : English
    Default : Нет
    Forced : Нет
    Текст #1
    Идентификатор : 4
    Формат : UTF-8
    Идентификатор кодека : S_TEXT/UTF8
    Идентификатор кодека/Информация : UTF-8 Plain Text
    Продолжительность : 1 ч. 30 м.
    Битрейт : 1 бит/сек
    Count of elements : 24
    Размер потока : 1,06 Кбайт (0%)
    Заголовок : Forced
    Язык : Russian
    Default : Да
    Forced : Нет
    Текст #2
    Идентификатор : 5
    Формат : UTF-8
    Идентификатор кодека : S_TEXT/UTF8
    Идентификатор кодека/Информация : UTF-8 Plain Text
    Продолжительность : 1 ч. 30 м.
    Битрейт : 77 бит/сек
    Count of elements : 1124
    Размер потока : 51,5 Кбайт (0%)
    Язык : Russian
    Default : Нет
    Forced : Нет
    Текст #3
    Идентификатор : 6
    Формат : UTF-8
    Идентификатор кодека : S_TEXT/UTF8
    Идентификатор кодека/Информация : UTF-8 Plain Text
    Продолжительность : 1 ч. 7 м.
    Битрейт : 0 бит/сек
    Count of elements : 10
    Размер потока : 319 байт (0%)
    Заголовок : Forced
    Язык : English
    Default : Нет
    Forced : Нет
    Текст #4
    Идентификатор : 7
    Формат : UTF-8
    Идентификатор кодека : S_TEXT/UTF8
    Идентификатор кодека/Информация : UTF-8 Plain Text
    Продолжительность : 1 ч. 28 м.
    Битрейт : 48 бит/сек
    Count of elements : 1172
    Размер потока : 31,4 Кбайт (0%)
    Язык : English
    Default : Нет
    Forced : Нет
    Текст #5
    Идентификатор : 8
    Формат : UTF-8
    Идентификатор кодека : S_TEXT/UTF8
    Идентификатор кодека/Информация : UTF-8 Plain Text
    Продолжительность : 1 ч. 35 м.
    Битрейт : 54 бит/сек
    Count of elements : 1447
    Размер потока : 38,0 Кбайт (0%)
    Заголовок : SDH
    Язык : English
    Default : Нет
    Forced : Нет
    Меню
    00:00:00.000 : en:Chapter 1
    00:03:20.325 : en:Chapter 2
    00:07:16.686 : en:Chapter 3
    00:14:18.066 : en:Chapter 4
    00:20:02.493 : en:Chapter 5
    00:27:26.603 : en:Chapter 6
    00:34:15.845 : en:Chapter 7
    00:37:44.304 : en:Chapter 8
    00:42:01.394 : en:Chapter 9
    00:45:11.959 : en:Chapter 10
    00:50:29.860 : en:Chapter 11
    00:56:07.155 : en:Chapter 12
    01:00:24.412 : en:Chapter 13
    01:05:34.931 : en:Chapter 14
    01:09:58.945 : en:Chapter 15
    01:14:38.349 : en:Chapter 16
    01:18:30.039 : en:Chapter 17
    01:23:17.659 : en:Chapter 18
    01:27:44.634 : en:Chapter 19
    01:32:27.667 : en:Chapter 20

    Скриншоты

    Скачать .torrent

    Скачать торрент-файл бесплатно и на максимальной скорости!

    Как скачивать? · Что такое торрент? · Рейтинг и ограничения

    !ВНИМАНИЕ!
    Сайт не распространяет и не хранит электронные версии произведений, а занимается лишь лишь предоставлением доступа к создаваемому пользователями каталогу ссылок на торрент-файлы, которые содержат только списки хеш-сумм, убедительная просьба с жалобами обращаться напрямую к пользователю. Файлы для обмена на трекере предоставлены пользователями сайта, и администрация не несёт ответственности за их содержание. Просьба не заливать файлы, защищенные авторскими правами, а также файлы нелегального содержания!


    _________________
    [Профиль] [ЛС]
    Показать сообщения:    
    Ответить на тему

    Текущее время: Сегодня, в 11:01

    Часовой пояс: GMT + 2



    Вы не можете начинать темы
    Вы не можете отвечать на сообщения
    Вы не можете редактировать свои сообщения
    Вы не можете удалять свои сообщения
    Вы не можете голосовать в опросах
    Вы не можете прикреплять файлы к сообщениям
    Вы не можете скачивать файлы