BitTorrentTracker PerecTracker.org
BitTorrentTracker PerecTracker.org
    
Регистрация  ·  Вход
 
 · 
Забыли пароль?

  • Жертвуя пешкой / Pawn Sacrifice (Эдвард Цвик / Edward Zwick) [2014, США, драма, биография, BDRip-AVC] Dub + Sub (Eng)

    Ответить на тему
     
    Автор Сообщение

    Light

    Создавать темы 23-Апр-2016 21:49

           

    [Цитировать]

    Жертвуя пешкой
    Pawn Sacrifice
    «СССР против США. Гений против гения. Разум против безумия»

    Страна: США
    Жанр: драма, биография
    Год выпуска: 2014
    Продолжительность: 01:55:43
    Перевод: Профессиональный (полное дублирование) [Лицензия iTunes]
    Субтитры: английские, английские (SDH)
    Оригинальная аудиодорожка: нет
    Режиссер: Эдвард Цвик / Edward Zwick
    В ролях: Тоби Магуайр, Лив Шрайбер, Робин Вайгерт, Лили Рэйб, Питер Сарсгаард, Майкл Стулбарг, Софи Нелисс, Эвелин Брошу, Шеймас Дэви-Фицпатрик, Лидия Зедел, Конрад Пла, Илья Волох
    Описание:
    В разгар Холодной войны внимание всей планеты приковано к «схватке столетия» - матчу за звание чемпиона мира по шахматам в Рейкьявике. Бой между абсолютным чемпионом Борисом Спасским и по-настоящему одержимым игрой Бобби Фишером превращается в борьбу за интеллектуальное превосходство двух сверхдержав. Права на проигрыш нет. Вокруг поединка разражается мировой скандал. Спасскому приходится справляться с беспрецедентным давлением. Гениальный разум Фишера, взвинченный паранойей, начинает охватывать безумие.
    Автор рипа: Stalker oK
    Сэмпл
    Качество видео: BDRip-AVC [bluebird / Blu-ray Disc / 1080p]
    Формат видео: MKV
    Видео кодек: AVC
    Аудио кодек: AC3
    Видео: 1418 Кбит/сек, 904x378 (2.35:1), 23,976 кадр/сек, AVC
    Аудио: русский, 384 Кбит/сек, 48 КГц, 16 бит, 5.1, AC3
    Навигация по главам: есть

    MediaInfo

    General
    Unique ID : 217092312190278704195487591862396136739 (0xA352755E933BDB0A91F78A1AE8AA2D23)
    Complete name : O:\Rips\Pawn Sacrifice\Pawn.Sacrifice.2014.BDRip-AVC.Dub.1.45Gb.stalkerok.new-team.mkv
    Format : Matroska
    File size : 1.45 GiB
    Duration : 1h 55mn
    Overall bit rate : 1 797 Kbps
    Movie name : Pawn Sacrifice (2014) (New-Team) (Rip by Stalker oK)
    Encoded date : UTC 2015-12-17 14:39:05
    Writing application : mkvmerge v7.9.0 ('Birds') 64bit
    Writing library : libebml v1.3.1 + libmatroska v1.4.2
    Video
    ID : 1
    Format : AVC
    Format/Info : Advanced Video Codec
    Format profile : High@L4.1
    Format settings, CABAC : Yes
    Format settings, ReFrames : 14 frames
    Codec ID : V_MPEG4/ISO/AVC
    Duration : 1h 55mn
    Bit rate : 1 418 Kbps
    Width : 904 pixels
    Height : 378 pixels
    Display aspect ratio : 2.35:1
    Frame rate : 23.976 fps
    Color space : YUV
    Chroma subsampling : 4:2:0
    Bit depth : 8 bits
    Scan type : Progressive
    Bits/(Pixel*Frame) : 0.173
    Stream size : 1.11 GiB (77%)
    Title : Pawn Sacrifice (2014) (New-Team) (Rip by Stalker oK)
    Writing library : x264 core 148 r2638 7599210
    Encoding settings : cabac=1 / ref=14 / deblock=1:-3:-3 / analyse=0x3:0x133 / me=umh / subme=11 / psy=1 / psy_rd=1.00:0.10 / mixed_ref=1 / me_range=48 / chroma_me=1 / trellis=2 / 8x8dct=1 / cqm=0 / deadzone=21,11 / fast_pskip=0 / chroma_qp_offset=-3 / threads=12 / lookahead_threads=2 / sliced_threads=0 / nr=0 / decimate=0 / interlaced=0 / bluray_compat=0 / constrained_intra=0 / bframes=15 / b_pyramid=2 / b_adapt=2 / b_bias=0 / direct=3 / weightb=1 / open_gop=0 / weightp=2 / keyint=240 / keyint_min=23 / scenecut=40 / intra_refresh=0 / rc_lookahead=60 / rc=2pass / mbtree=0 / bitrate=1418 / ratetol=1.0 / qcomp=0.70 / qpmin=0 / qpmax=69 / qpstep=4 / cplxblur=20.0 / qblur=0.5 / vbv_maxrate=50000 / vbv_bufsize=62500 / nal_hrd=none / filler=0 / ip_ratio=1.40 / pb_ratio=1.30 / aq=3:0.90
    Audio
    ID : 2
    Format : AC-3
    Format/Info : Audio Coding 3
    Mode extension : CM (complete main)
    Codec ID : A_AC3
    Duration : 1h 55mn
    Bit rate mode : Constant
    Bit rate : 384 Kbps
    Channel(s) : 6 channels
    Channel positions : Front: L C R, Side: L R, LFE
    Sampling rate : 48.0 KHz
    Bit depth : 16 bits
    Compression mode : Lossy
    Stream size : 318 MiB (21%)
    Language : Russian
    Text #1
    ID : 3
    Format : UTF-8
    Codec ID : S_TEXT/UTF8
    Codec ID/Info : UTF-8 Plain Text
    Language : English
    Text #2
    ID : 4
    Format : UTF-8
    Codec ID : S_TEXT/UTF8
    Codec ID/Info : UTF-8 Plain Text
    Title : SDH
    Language : English
    Menu
    00:00:00.000 : en:Chapter 1
    00:06:40.024 : en:Chapter 2
    00:10:34.842 : en:Chapter 3
    00:15:15.539 : en:Chapter 4
    00:20:03.535 : en:Chapter 5
    00:26:01.851 : en:Chapter 6
    00:31:15.123 : en:Chapter 7
    00:38:54.040 : en:Chapter 8
    00:45:24.179 : en:Chapter 9
    00:51:00.140 : en:Chapter 10
    00:55:47.802 : en:Chapter 11
    00:59:35.613 : en:Chapter 12
    01:07:02.435 : en:Chapter 13
    01:10:49.536 : en:Chapter 14
    01:18:07.808 : en:Chapter 15
    01:22:53.677 : en:Chapter 16
    01:29:49.884 : en:Chapter 17
    01:35:09.495 : en:Chapter 18
    01:39:16.951 : en:Chapter 19
    01:48:15.113 : en:Chapter 20

    Скриншоты

    Скачать .torrent

    Скачать торрент-файл бесплатно и на максимальной скорости!

    Как скачивать? · Что такое торрент? · Рейтинг и ограничения

    !ВНИМАНИЕ!
    Сайт не распространяет и не хранит электронные версии произведений, а занимается лишь лишь предоставлением доступа к создаваемому пользователями каталогу ссылок на торрент-файлы, которые содержат только списки хеш-сумм, убедительная просьба с жалобами обращаться напрямую к пользователю. Файлы для обмена на трекере предоставлены пользователями сайта, и администрация не несёт ответственности за их содержание. Просьба не заливать файлы, защищенные авторскими правами, а также файлы нелегального содержания!


    _________________
    [Профиль] [ЛС]
    Показать сообщения:    
    Ответить на тему

    Текущее время: Сегодня, в 18:54

    Часовой пояс: GMT + 2



    Вы не можете начинать темы
    Вы не можете отвечать на сообщения
    Вы не можете редактировать свои сообщения
    Вы не можете удалять свои сообщения
    Вы не можете голосовать в опросах
    Вы не можете прикреплять файлы к сообщениям
    Вы не можете скачивать файлы