BitTorrentTracker PerecTracker.org
BitTorrentTracker PerecTracker.org
    
Регистрация  ·  Вход
 
 · 
Забыли пароль?

  • Жертвуя пешкой / Pawn Sacrifice (Эдвард Цвик / Edward Zwick) [2014, США, драма, биография, BDRip-AVC] Dub + Original (Eng) + Sub (Eng)

    Ответить на тему
     
    Автор Сообщение

    Light

    Создавать темы 23-Апр-2016 21:48

           

    [Цитировать]

    Жертвуя пешкой
    Pawn Sacrifice
    «СССР против США. Гений против гения. Разум против безумия»

    Страна: США
    Жанр: драма, биография
    Год выпуска: 2014
    Продолжительность: 01:55:43
    Перевод: Профессиональный (полное дублирование) [Лицензия iTunes]
    Субтитры: английские, английские (SDH)
    Оригинальная аудиодорожка: Английский
    Режиссер: Эдвард Цвик / Edward Zwick
    В ролях: Тоби Магуайр, Лив Шрайбер, Робин Вайгерт, Лили Рэйб, Питер Сарсгаард, Майкл Стулбарг, Софи Нелисс, Эвелин Брошу, Шеймас Дэви-Фицпатрик, Лидия Зедел, Конрад Пла, Илья Волох
    Описание:
    В разгар Холодной войны внимание всей планеты приковано к «схватке столетия» - матчу за звание чемпиона мира по шахматам в Рейкьявике. Бой между абсолютным чемпионом Борисом Спасским и по-настоящему одержимым игрой Бобби Фишером превращается в борьбу за интеллектуальное превосходство двух сверхдержав. Права на проигрыш нет. Вокруг поединка разражается мировой скандал. Спасскому приходится справляться с беспрецедентным давлением. Гениальный разум Фишера, взвинченный паранойей, начинает охватывать безумие.
    Автор рипа: Stalker oK
    Сэмпл
    Качество видео: BDRip-AVC [bluebird / Blu-ray Disc / 1080p]
    Формат видео: MKV
    Видео кодек: AVC
    Аудио кодек: AC3
    Видео: 2705 Кбит/сек, 1152*482 (2,35:1), в 23,976 кадр/сек, AVC
    Аудио #1: Russian, 384 Кбит/сек, 48,0 КГц, 16 бит, 6 канала(ов), AC-3
    Аудио #2: English, 448 Кбит/сек, 48,0 КГц, 16 бит, 6 канала(ов), AC-3
    Навигация по главам: есть

    MediaInfo

    Общее
    Уникальный идентификатор : 249324783066354889710820114926686864146 (0xBB9234E105262DE9B299DB90CB228312)
    Полное имя : O:\Rips\Pawn Sacrifice\Pawn.Sacrifice.2014.BDRip-AVC.Dub.2.91Gb.stalkerok.new-team.mkv
    Формат : Matroska
    Размер файла : 2,85 Гбайт
    Продолжительность : 1 ч. 55 м.
    Общий поток : 3522 Кбит/сек
    Название фильма : Pawn Sacrifice (2014) (New-Team) (Rip by Stalker oK)
    Дата кодирования : UTC 2015-12-17 20:57:20
    Программа кодирования : mkvmerge v7.9.0 ('Birds') 64bit
    Библиотека кодирования : libebml v1.3.1 + libmatroska v1.4.2
    Видео
    Идентификатор : 1
    Формат : AVC
    Формат/Информация : Advanced Video Codec
    Профиль формата : High@L4.1
    Параметр CABAC формата : Да
    Параметр ReFrames формата : 13 кадры
    Идентификатор кодека : V_MPEG4/ISO/AVC
    Продолжительность : 1 ч. 55 м.
    Битрейт : 2705 Кбит/сек
    Ширина : 1152 пикс.
    Высота : 482 пикс.
    Соотношение сторон : 2,35:1
    Частота кадров : 23,976 кадр/сек
    Цветовое пространство : YUV
    Подвыборка цветности : 4:2:0
    Битовая глубина : 8 бит
    Тип развёртки : Прогрессивная
    Бит/(Пиксели*Кадры) : 0.203
    Размер потока : 2,12 Гбайт (74%)
    Заголовок : Pawn Sacrifice (2014) (New-Team) (Rip by Stalker oK)
    Библиотека кодирования : x264 core 148 r2638 7599210
    Настройки программы : cabac=1 / ref=13 / deblock=1:-3:-3 / analyse=0x3:0x133 / me=umh / subme=11 / psy=1 / psy_rd=1.00:0.10 / mixed_ref=1 / me_range=48 / chroma_me=1 / trellis=2 / 8x8dct=1 / cqm=0 / deadzone=21,11 / fast_pskip=0 / chroma_qp_offset=-3 / threads=12 / lookahead_threads=3 / sliced_threads=0 / nr=0 / decimate=0 / interlaced=0 / bluray_compat=0 / constrained_intra=0 / bframes=14 / b_pyramid=2 / b_adapt=2 / b_bias=0 / direct=3 / weightb=1 / open_gop=0 / weightp=2 / keyint=240 / keyint_min=23 / scenecut=40 / intra_refresh=0 / rc_lookahead=60 / rc=2pass / mbtree=0 / bitrate=2705 / ratetol=1.0 / qcomp=0.70 / qpmin=0 / qpmax=69 / qpstep=4 / cplxblur=20.0 / qblur=0.5 / vbv_maxrate=50000 / vbv_bufsize=62500 / nal_hrd=none / filler=0 / ip_ratio=1.40 / pb_ratio=1.30 / aq=3:0.90
    Аудио #1
    Идентификатор : 2
    Формат : AC-3
    Формат/Информация : Audio Coding 3
    Расширение режима : CM (complete main)
    Идентификатор кодека : A_AC3
    Продолжительность : 1 ч. 55 м.
    Вид битрейта : Постоянный
    Битрейт : 384 Кбит/сек
    Канал(ы) : 6 канала(ов)
    Расположение каналов : Front: L C R, Side: L R, LFE
    Частота : 48,0 КГц
    Битовая глубина : 16 бит
    Метод сжатия : С потерями
    Размер потока : 318 Мбайт (11%)
    Язык : Russian
    Аудио #2
    Идентификатор : 3
    Формат : AC-3
    Формат/Информация : Audio Coding 3
    Расширение режима : CM (complete main)
    Идентификатор кодека : A_AC3
    Продолжительность : 1 ч. 55 м.
    Вид битрейта : Постоянный
    Битрейт : 448 Кбит/сек
    Канал(ы) : 6 канала(ов)
    Расположение каналов : Front: L C R, Side: L R, LFE
    Частота : 48,0 КГц
    Битовая глубина : 16 бит
    Метод сжатия : С потерями
    Размер потока : 371 Мбайт (13%)
    Язык : English
    Текст #1
    Идентификатор : 4
    Формат : UTF-8
    Идентификатор кодека : S_TEXT/UTF8
    Идентификатор кодека/Информация : UTF-8 Plain Text
    Язык : English
    Текст #2
    Идентификатор : 5
    Формат : UTF-8
    Идентификатор кодека : S_TEXT/UTF8
    Идентификатор кодека/Информация : UTF-8 Plain Text
    Заголовок : SDH
    Язык : English
    Меню
    00:00:00.000 : en:Chapter 1
    00:06:40.024 : en:Chapter 2
    00:10:34.842 : en:Chapter 3
    00:15:15.539 : en:Chapter 4
    00:20:03.535 : en:Chapter 5
    00:26:01.851 : en:Chapter 6
    00:31:15.123 : en:Chapter 7
    00:38:54.040 : en:Chapter 8
    00:45:24.179 : en:Chapter 9
    00:51:00.140 : en:Chapter 10
    00:55:47.802 : en:Chapter 11
    00:59:35.613 : en:Chapter 12
    01:07:02.435 : en:Chapter 13
    01:10:49.536 : en:Chapter 14
    01:18:07.808 : en:Chapter 15
    01:22:53.677 : en:Chapter 16
    01:29:49.884 : en:Chapter 17
    01:35:09.495 : en:Chapter 18
    01:39:16.951 : en:Chapter 19
    01:48:15.113 : en:Chapter 20

    Скриншоты

    Скачать .torrent

    Скачать торрент-файл бесплатно и на максимальной скорости!

    Как скачивать? · Что такое торрент? · Рейтинг и ограничения

    !ВНИМАНИЕ!
    Сайт не распространяет и не хранит электронные версии произведений, а занимается лишь лишь предоставлением доступа к создаваемому пользователями каталогу ссылок на торрент-файлы, которые содержат только списки хеш-сумм, убедительная просьба с жалобами обращаться напрямую к пользователю. Файлы для обмена на трекере предоставлены пользователями сайта, и администрация не несёт ответственности за их содержание. Просьба не заливать файлы, защищенные авторскими правами, а также файлы нелегального содержания!


    _________________
    [Профиль] [ЛС]
    Показать сообщения:    
    Ответить на тему

    Текущее время: Сегодня, в 09:06

    Часовой пояс: GMT + 2



    Вы не можете начинать темы
    Вы не можете отвечать на сообщения
    Вы не можете редактировать свои сообщения
    Вы не можете удалять свои сообщения
    Вы не можете голосовать в опросах
    Вы не можете прикреплять файлы к сообщениям
    Вы не можете скачивать файлы