BitTorrentTracker PerecTracker.org
BitTorrentTracker PerecTracker.org
    
Регистрация  ·  Вход
 
 · 
Забыли пароль?

  • Звёздные войны: Пробуждение силы / Star Wars: Episode VII - The Force Awakens (Джей Джей Абрамс / J.J. Abrams) [2015, США, фантастика, приключения, боевик, BDRip-AVC] [Локализованный видеоряд] Dub + Original + Sub (rus, eng)

    Ответить на тему
     
    Автор Сообщение

    Light

    Создавать темы 23-Апр-2016 21:48

           

    [Цитировать]

    Звёздные войны: Пробуждение силы / Star Wars: Episode VII - The Force Awakens«Every generation has a story»-Страна: США
    Жанр: фантастика, приключения, боевик
    Год выпуска: 2015
    Продолжительность: 02:18:07
    Перевод: Профессиональный (полное дублирование)
    Оригинальная аудиодорожка: английский
    Cубтитры: русские (форс., полные), английские (полные, SDH)
    Навигация по главам: есть
    Режиссёр: Джей Джей Абрамс / J.J. Abrams
    В ролях: Джон Бойега, Дэйзи Ридли, Оскар Айзек, Адам Драйвер, Донал Глисон, Харрисон Форд, Марк Хэмилл, Кэрри Фишер, Макс фон Сюдов, Энди Серкис
    Описание: Через тридцать лет после гибели Дарта Вейдера и Императора галактика по-прежнему в опасности. Государственное образование Первый Орден во главе с их таинственным верховным лидером Сноуком и его правой рукой Кайло Реном идёт по стопам Империи, пытаясь захватить всю власть. В это нелёгкое время судьба сводит юную девушку Рей и бывшего штурмовика Первого Ордена Финна с героями времён войны с Империей — Ханом Соло, Чубаккой и генералом Леей. Вместе они должны дать бой Первому Ордену, однако настаёт тот момент, когда становится очевидно, что лишь джедаи могут остановить Сноука и Кайло Рена. И в галактике в живых остаётся только один…

    Качество видео: BDRip-AVC (исходник - Blu-ray|SW_VII_BD_EUR)
    Формат видео: MKV
    Видео: x264, 1152x480 (2.40:1), 23,976 fps, ~3485 kbps, 0.263 bit/pixel
    Аудио 1: 48 kHz, AC3 Dolby Digital, 3/2 (L,C,R,l,r) + LFE ch, ~448 kbps [русский]
    Аудио 2: 48 kHz, AC3 Dolby Digital, 3/2 (L,C,R,l,r) + LFE ch, ~448 kbps [английский]
    Формат субтитров: softsub (SRT)
    MediaInfo | x264 log
    Format : Matroska
    Format version : Version 4 / Version 2
    File size : 4.31 GiB
    Duration : 2h 18mn
    Overall bit rate : 4 470 Kbps
    Movie name : Star Wars: Episode VII - The Force Awakens (2015) :: AFM ::
    Encoded date : UTC 2016-04-23 16:06:21
    Writing application : mkvmerge v8.3.0 ('Over the Horizon') 32bit
    Writing library : libebml v1.3.1 + libmatroska v1.4.2
    Video
    ID : 1
    Format : AVC
    Format/Info : Advanced Video Codec
    Format profile : High@L4.1
    Format settings, CABAC : Yes
    Format settings, ReFrames : 11 frames
    Codec ID : V_MPEG4/ISO/AVC
    Duration : 2h 18mn
    Bit rate : 3 485 Kbps
    Width : 1 152 pixels
    Height : 480 pixels
    Display aspect ratio : 2.40:1
    Frame rate mode : Constant
    Frame rate : 23.976 fps
    Color space : YUV
    Chroma subsampling : 4:2:0
    Bit depth : 8 bits
    Scan type : Progressive
    Bits/(Pixel*Frame) : 0.263
    Stream size : 3.36 GiB (78%)
    Title : BDRip by AFM [RuTracker.org]
    Writing library : x264 core 148 r2665+53 6629127 t_mod_Custom [8-bit@all X86_64]
    Encoding settings : cabac=1 / ref=11 / deblock=1:-3:-2 / analyse=0x3:0x113 / me=umh / subme=10 / psy=1 / fade_compensate=0.00 / psy_rd=1.00:0.00 / mixed_ref=1 / me_range=32 / chroma_me=1 / trellis=2 / 8x8dct=1 / cqm=0 / deadzone=21,11 / fast_pskip=0 / chroma_qp_offset=-2 / threads=6 / lookahead_threads=1 / sliced_threads=0 / nr=0 / decimate=1 / interlaced=0 / bluray_compat=0 / constrained_intra=0 / fgo=0 / bframes=13 / b_pyramid=2 / b_adapt=2 / b_bias=0 / direct=1 / weightb=1 / open_gop=0 / weightp=2 / keyint=250 / keyint_min=23 / scenecut=40 / intra_refresh=0 / rc_lookahead=40 / rc=crf / mbtree=0 / crf=17.5000 / qcomp=0.65 / qpmin=0:0:0 / qpmax=69:69:69 / qpstep=4 / vbv_maxrate=50000 / vbv_bufsize=62500 / crf_max=0.0 / nal_hrd=none / filler=0 / ip_ratio=1.30 / pb_ratio=1.25 / aq=3:0.80 / aq-sensitivity=10.00 / aq-factor=1.00:1.00:1.00 / aq2=0 / aq3=0
    Language : English
    Default : Yes
    Forced : No
    Audio #1
    ID : 2
    Format : AC-3
    Format/Info : Audio Coding 3
    Mode extension : CM (complete main)
    Format settings, Endianness : Big
    Codec ID : A_AC3
    Duration : 2h 18mn
    Bit rate mode : Constant
    Bit rate : 448 Kbps
    Channel(s) : 6 channels
    Channel positions : Front: L C R, Side: L R, LFE
    Sampling rate : 48.0 KHz
    Compression mode : Lossy
    Stream size : 443 MiB (10%)
    Title : Dub, AC3 5.1 ~448 kbps
    Language : Russian
    Default : Yes
    Forced : No
    Audio #2
    ID : 3
    Format : AC-3
    Format/Info : Audio Coding 3
    Mode extension : CM (complete main)
    Format settings, Endianness : Big
    Codec ID : A_AC3
    Duration : 2h 18mn
    Bit rate mode : Constant
    Bit rate : 448 Kbps
    Channel(s) : 6 channels
    Channel positions : Front: L C R, Side: L R, LFE
    Sampling rate : 48.0 KHz
    Compression mode : Lossy
    Stream size : 443 MiB (10%)
    Title : Original, AC3 5.1 ~448 kbps
    Language : English
    Default : No
    Forced : No
    Text #1
    ID : 4
    Format : UTF-8
    Codec ID : S_TEXT/UTF8
    Codec ID/Info : UTF-8 Plain Text
    Title : forcred
    Language : Russian
    Default : Yes
    Forced : No
    Text #2
    ID : 5
    Format : UTF-8
    Codec ID : S_TEXT/UTF8
    Codec ID/Info : UTF-8 Plain Text
    Title : full
    Language : Russian
    Default : No
    Forced : No
    Text #3
    ID : 6
    Format : UTF-8
    Codec ID : S_TEXT/UTF8
    Codec ID/Info : UTF-8 Plain Text
    Title : full
    Language : English
    Default : No
    Forced : No
    Text #4
    ID : 7
    Format : UTF-8
    Codec ID : S_TEXT/UTF8
    Codec ID/Info : UTF-8 Plain Text
    Title : SHD
    Language : English
    Default : No
    Forced : No
    Menu
    00:00:00.000 : en:Opening Logo
    00:00:09.259 : en:The Force Awakens
    00:01:43.061 : en:The First Order Approaches
    00:03:51.857 : en:Village Raid
    00:06:12.289 : en:Kylo Ren
    00:09:33.948 : en:FN-2187
    00:10:43.560 : en:Rey
    00:12:35.713 : en:Niima Outpost
    00:13:39.694 : en:Rey at Home
    00:14:48.221 : en:Saving BB-8
    00:16:45.922 : en:Interrogation
    00:18:04.583 : en:Unkar's Offer
    00:19:21.535 : en:Jailbreak
    00:21:26.619 : en:TIE Gighter Escape
    00:24:03.651 : en:Marooned on Jakku
    00:26:47.022 : en:Crossing Paths
    00:29:54.668 : en:Marketplace Chase
    00:31:49.324 : en:The Falcon Flies Again
    00:35:51.775 : en:Introductions
    00:36:40.615 : en:Kylo Is Updated
    00:37:45.513 : en:Fixing the Falcon
    00:40:19.250 : en:Chewie, We're Home
    00:43:39.200 : en:Corellion Stand
    00:45:29.560 : en:Rathtar Mayhem
    00:49:22.918 : en:Supreme Leader
    00:51:19.952 : en:It's All True
    00:54:13.750 : en:Meeting Maz
    00:59:48.794 : en:Discussions of Destinies
    01:04:16.061 : en:Visions in the Force
    01:08:37.238 : en:Starkiller
    01:11:07.221 : en:First Order Invasion
    01:15:16.387 : en:Resistance to the Rescue
    01:16:49.897 : en:Kylo Finds Rey
    01:19:37.523 : en:Reunion
    01:20:56.894 : en:Resistance Base
    01:25:36.173 : en:Rey Imprisoned
    01:32:12.569 : en:Resistance Briefing
    01:35:29.015 : en:Starkiller Landing
    01:36:34.956 : en:Base Infiltration
    01:39:28.629 : en:X-Wing Attack
    01:41:29.959 : en:Rejoining Rey
    01:42:57.505 : en:Into The Oscillator
    01:45:00.002 : en:Father and Son
    01:50:33.710 : en:Dark Forest
    01:53:39.771 : en:Oscillator Breached
    01:55:22.165 : en:Forest Duel
    01:58:05.453 : en:Cataclysm
    02:01:05.592 : en:Made Whole
    02:02:32.679 : en:Finding the Master
    02:07:07.578 : en:End Credits

    x264

    x264 [info]: frame I:1497 Avg QP:15.70 size: 79549
    x264 [info]: frame P:43914 Avg QP:16.81 size: 35555
    x264 [info]: frame B:149952 Avg QP:19.18 size: 13323
    x264 [info]: consecutive B-frames: 2.7% 2.8% 7.9% 22.2% 19.5% 34.8% 5.6% 1.4% 1.2% 0.6% 0.5% 0.2% 0.5% 0.3%
    x264 [info]: mb I I16..4: 3.8% 79.4% 16.9%
    x264 [info]: mb P I16..4: 1.1% 17.7% 1.9% P16..4: 31.5% 29.0% 15.5% 0.0% 0.0% skip: 3.3%
    x264 [info]: mb B I16..4: 0.1% 1.4% 0.2% B16..8: 40.2% 16.5% 5.3% direct: 7.2% skip:29.1% L0:43.7% L1:43.7% BI:12.6%
    x264 [info]: 8x8 transform intra:84.2% inter:60.1%
    x264 [info]: coded y,uvDC,uvAC intra: 91.0% 91.4% 78.4% inter: 33.7% 28.6% 10.6%
    x264 [info]: i16 v,h,dc,p: 34% 14% 8% 44%
    x264 [info]: i8 v,h,dc,ddl,ddr,vr,hd,vl,hu: 8% 9% 8% 10% 14% 13% 14% 11% 14%
    x264 [info]: i4 v,h,dc,ddl,ddr,vr,hd,vl,hu: 6% 7% 3% 10% 17% 15% 16% 12% 14%
    x264 [info]: i8c dc,h,v,p: 47% 19% 14% 20%
    x264 [info]: Weighted P-Frames: Y:97.8% UV:4.4%
    x264 [info]: ref P L0: 44.2% 10.2% 17.7% 6.8% 5.9% 3.9% 3.6% 2.0% 2.2% 1.6% 1.6% 0.3% 0.0%
    x264 [info]: ref B L0: 70.2% 12.3% 6.0% 3.5% 2.6% 2.0% 1.5% 1.0% 0.7% 0.3%
    x264 [info]: ref B L1: 93.0% 7.0%
    x264 [info]: kb/s:3611.35

    Скриншоты

    с названием

    Скачать .torrent

    Скачать торрент-файл бесплатно и на максимальной скорости!

    Как скачивать? · Что такое торрент? · Рейтинг и ограничения

    !ВНИМАНИЕ!
    Сайт не распространяет и не хранит электронные версии произведений, а занимается лишь лишь предоставлением доступа к создаваемому пользователями каталогу ссылок на торрент-файлы, которые содержат только списки хеш-сумм, убедительная просьба с жалобами обращаться напрямую к пользователю. Файлы для обмена на трекере предоставлены пользователями сайта, и администрация не несёт ответственности за их содержание. Просьба не заливать файлы, защищенные авторскими правами, а также файлы нелегального содержания!


    _________________
    [Профиль] [ЛС]
    Показать сообщения:    
    Ответить на тему

    Текущее время: Сегодня, в 17:42

    Часовой пояс: GMT + 2



    Вы не можете начинать темы
    Вы не можете отвечать на сообщения
    Вы не можете редактировать свои сообщения
    Вы не можете удалять свои сообщения
    Вы не можете голосовать в опросах
    Вы не можете прикреплять файлы к сообщениям
    Вы не можете скачивать файлы