BitTorrentTracker PerecTracker.org
BitTorrentTracker PerecTracker.org
    
Регистрация  ·  Вход
 
 · 
Забыли пароль?

  • Сделай шаг: Лови момент / Make Your Move (Дуан Адлер / Duane Adler) [2013, США, Корея Южная, мелодрама, BDRemux 1080p] Dub + DVO (GREEN TEA) + Original (Eng) + Sub (Rus, Eng)

    Ответить на тему
     
    Автор Сообщение

    Light

    Создавать темы 23-Апр-2016 17:36

           

    [Цитировать]

    Сделай шаг: Лови момент / Make Your Move

    -
    -Страна: США, Корея Южная
    Студия: CJ Entertainment, Robert Cort Productions
    Жанр: мелодрама
    Год выпуска: 2013
    Продолжительность: 01:49:56--Перевод 1: Профессиональный (дублированный)
    Перевод 2: Любительский (двухголосый закадровый) Ольга Гринтиева и Франк Цветков
    Cубтитры: русские (notabenoid), английские (full, SDH)
    Оригинальная аудиодорожка: английский--Режиссер: Дуан Адлер / Duane Adler
    В ролях: Дерек Хаф, БоА, Уилл Юн Ли, Уэсли Джонатан, Изабелла Мико, Джефферсон Браун, Мики Исикава, Рик Гонсалес, Майкл Мэндо, Дэн Лория ...--Описание: История о двух танцорах, которые выросли в разных условиях. Но оба они окажутся в Нью-Йорке и будут работать вместе в клубе. Между ними соперничество, но, когда двое влюбляются, история превращается в историю Ромео и Джульетты.-- | | Сэмпл--Тип релиза: BDRemux 1080p [Make.Your.Move.2013.COMPLETE.BLURAY-LAZERS]
    Контейнер: MKV
    Видео: MPEG-4 AVC / 24917 kbps / 1920x1080 / 24 fps / 16:9 / High Profile 4.1
    Аудио 1: Russian AC3 / 2.0 / 48 kHz / 192 kbps / 16 bits |Dub|
    Аудио 2: Russian AC3 / 2.0 / 48 kHz / 192 kbps / 16 bits |DVO, GREEN TEA|
    Аудио 3: English DTS-HD Master Audio / 5.1 / 48 kHz / 3904 kbps / 24 bits (DTS Core: 5.1 / 48 kHz / 1509 kbps / 24 bits) |original|
    Формат субтитров: softsub [SRT]

    MediaInfo

    Общее
    Уникальный идентификатор                 : 183025903621116699023559656869777243961 (0x89B181C026B2B796A781EF7D9C09FF39)
    Полное имя                               : G:\HD\Сделай шаг Лови момент.2013.Blu-Ray.Remux.(1080p).mkv
    Формат                                   : Matroska
    Версия формата                           : Version 4 / Version 2
    Размер файла                             : 22,4 Гбайт
    Продолжительность                        : 1 ч. 49 м.
    Режим общего битрейта                    : Переменный
    Общий поток                              : 29,2 Мбит/сек
    Дата кодирования                         : UTC 2016-04-22 16:45:23
    Программа кодирования                    : mkvmerge v9.0.1 ('Obstacles') 64bit
    Библиотека кодирования                   : libebml v1.3.3 + libmatroska v1.4.4
    Attachments                              : poster.jpg
    Видео
    Идентификатор                            : 1
    Формат                                   : AVC
    Формат/Информация                        : Advanced Video Codec
    Профиль формата                          : High@L4.1
    Параметр CABAC формата                   : Да
    Параметр ReFrames формата                : 2 кадра
    Идентификатор кодека                     : V_MPEG4/ISO/AVC
    Продолжительность                        : 1 ч. 49 м.
    Вид битрейта                             : Переменный
    Битрейт                                  : 24,9 Мбит/сек
    Ширина                                   : 1920 пикселей
    Высота                                   : 1080 пикселей
    Соотношение сторон                       : 16:9
    Режим частоты кадров                     : Постоянный
    Частота кадров                           : 23,976 (24000/1001) кадра/сек
    Цветовое пространство                    : YUV
    Субдискретизация насыщенности            : 4:2:0
    Битовая глубина                          : 8 бит
    Тип развёртки                            : Прогрессивная
    Бит/(Пиксели*Кадры)                      : 0.501
    Размер потока                            : 19,1 Гбайт (85%)
    Default                                  : Да
    Forced                                   : Нет
    Аудио #1
    Идентификатор                            : 2
    Формат                                   : AC-3
    Формат/Информация                        : Audio Coding 3
    Расширение режима                        : CM (complete main)
    Параметр Endianness формата              : Big
    Идентификатор кодека                     : A_AC3
    Продолжительность                        : 1 ч. 49 м.
    Вид битрейта                             : Постоянный
    Битрейт                                  : 192 Кбит/сек
    Каналы                                   : 2 канала
    Расположение каналов                     : Front: L R
    Частота                                  : 48,0 КГц
    Частота кадров                           : 31,250 кадров/сек (1536 spf)
    Метод сжатия                             : С потерями
    Размер потока                            : 151 Мбайт (1%)
    Заголовок                                : Dub
    Язык                                     : Russian
    Default                                  : Да
    Forced                                   : Нет
    Аудио #2
    Идентификатор                            : 3
    Формат                                   : AC-3
    Формат/Информация                        : Audio Coding 3
    Расширение режима                        : CM (complete main)
    Параметр Endianness формата              : Big
    Идентификатор кодека                     : A_AC3
    Продолжительность                        : 1 ч. 49 м.
    Вид битрейта                             : Постоянный
    Битрейт                                  : 192 Кбит/сек
    Каналы                                   : 2 канала
    Расположение каналов                     : Front: L R
    Частота                                  : 48,0 КГц
    Частота кадров                           : 31,250 кадров/сек (1536 spf)
    Метод сжатия                             : С потерями
    Размер потока                            : 151 Мбайт (1%)
    Заголовок                                : DVO, GREEN TEA
    Язык                                     : Russian
    Default                                  : Нет
    Forced                                   : Нет
    Аудио #3
    Идентификатор                            : 4
    Формат                                   : DTS
    Формат/Информация                        : Digital Theater Systems
    Профиль формата                          : MA / Core
    Режим                                    : 16
    Параметр Endianness формата              : Big
    Идентификатор кодека                     : A_DTS
    Продолжительность                        : 1 ч. 49 м.
    Вид битрейта                             : Переменный / Постоянный
    Битрейт                                  : 3840 Кбит/сек / 1509 Кбит/сек
    Каналы                                   : 6 каналов
    Расположение каналов                     : Front: L C R, Side: L R, LFE
    Частота                                  : 48,0 КГц
    Частота кадров                           : 93,750 кадра/сек (512 spf)
    Битовая глубина                          : 24 бит
    Метод сжатия                             : Без потерь / Lossy
    Размер потока                            : 3,00 Гбайт (13%)
    Язык                                     : English
    Default                                  : Нет
    Forced                                   : Нет
    Текст #1
    Идентификатор                            : 5
    Формат                                   : UTF-8
    Идентификатор кодека                     : S_TEXT/UTF8
    Идентификатор кодека/Информация          : UTF-8 Plain Text
    Продолжительность                        : 1 ч. 45 м.
    Битрейт                                  : 93 бит/сек
    Count of elements                        : 1108
    Размер потока                            : 72,5 Кбайт (0%)
    Заголовок                                : notabenoid
    Язык                                     : Russian
    Default                                  : Нет
    Forced                                   : Нет
    Текст #2
    Идентификатор                            : 6
    Формат                                   : UTF-8
    Идентификатор кодека                     : S_TEXT/UTF8
    Идентификатор кодека/Информация          : UTF-8 Plain Text
    Продолжительность                        : 1 ч. 40 м.
    Битрейт                                  : 48 бит/сек
    Count of elements                        : 1035
    Размер потока                            : 35,7 Кбайт (0%)
    Заголовок                                : full
    Язык                                     : English
    Default                                  : Нет
    Forced                                   : Нет
    Текст #3
    Идентификатор                            : 7
    Формат                                   : UTF-8
    Идентификатор кодека                     : S_TEXT/UTF8
    Идентификатор кодека/Информация          : UTF-8 Plain Text
    Продолжительность                        : 1 ч. 47 м.
    Битрейт                                  : 66 бит/сек
    Count of elements                        : 1531
    Размер потока                            : 52,1 Кбайт (0%)
    Заголовок                                : SDH
    Язык                                     : English
    Default                                  : Нет
    Forced                                   : Нет
    Меню
    00:00:00.000                             : :Chapter 01
    00:06:54.914                             : :Chapter 02
    00:13:16.670                             : :Chapter 03
    00:19:53.609                             : :Chapter 04
    00:24:28.049                             : :Chapter 05
    00:29:49.996                             : :Chapter 06
    00:37:13.147                             : :Chapter 07
    00:46:08.265                             : :Chapter 08
    00:51:34.091                             : :Chapter 09
    00:57:15.265                             : :Chapter 10
    01:04:03.798                             : :Chapter 11
    01:13:08.175                             : :Chapter 12
    01:20:50.595                             : :Chapter 13
    01:28:58.583                             : :Chapter 14
    01:33:43.284                             : :Chapter 15
    01:41:20.574                             : :Chapter 16

    Скриншоты


    Скачать .torrent

    Скачать торрент-файл бесплатно и на максимальной скорости!

    Как скачивать? · Что такое торрент? · Рейтинг и ограничения

    !ВНИМАНИЕ!
    Сайт не распространяет и не хранит электронные версии произведений, а занимается лишь лишь предоставлением доступа к создаваемому пользователями каталогу ссылок на торрент-файлы, которые содержат только списки хеш-сумм, убедительная просьба с жалобами обращаться напрямую к пользователю. Файлы для обмена на трекере предоставлены пользователями сайта, и администрация не несёт ответственности за их содержание. Просьба не заливать файлы, защищенные авторскими правами, а также файлы нелегального содержания!


    _________________
    [Профиль] [ЛС]
    Показать сообщения:    
    Ответить на тему

    Текущее время: Сегодня, в 04:07

    Часовой пояс: GMT + 2



    Вы не можете начинать темы
    Вы не можете отвечать на сообщения
    Вы не можете редактировать свои сообщения
    Вы не можете удалять свои сообщения
    Вы не можете голосовать в опросах
    Вы не можете прикреплять файлы к сообщениям
    Вы не можете скачивать файлы