BitTorrentTracker PerecTracker.org
BitTorrentTracker PerecTracker.org
    
Регистрация  ·  Вход
 
 · 
Забыли пароль?

  • 14+ / Четырнадцать плюс (Андрей Зайцев) [2015, мелодрама, WEB-DLRip]

    Ответить на тему
     
    Автор Сообщение

    Flirldrerve

    Создавать темы 23-Апр-2016 13:25

           

    [Цитировать]

    14+«История первой любви»Жанр: мелодрама
    Год выпуска: 2015
    Продолжительность: 01:46:27
    Режиссёр: Андрей Зайцев
    В ролях: Глеб Калюжный, Ульяна Васькович, Ольга Озоллапиня, Дмитрий Баринов, Ксения Пахомова, Даниил Пикула, Елизавета Македонская, Алексей Филимонов, Александр Кононец, Сергей Габриэлян, Эльдар Калимулин, Алексей Курцын, Анна Рудь, Дмитрий Блохин, Максим Палащенко, Наталья Пикула, Ирина Фролова, Шандор Беркеши, Владислав Горячкин, Софья Урицкая, Юрий Колганов, Александр Боев, Александра Виноградкина, Виктор Прусиков
    Описание: Это история первой любви в 14 лет, разворачивающаяся в спальном районе большого города. История современных Ромео и Джульетты, живущих и в социальных сетях, и на улице с их жесткими правилами и законами, по которым влюбленные не хотят и не будут играть. Чтобы быть вместе, главным героям придется преодолеть многое: их школы враждуют между собой, поэтому их любовь – предательство своего района и своей компании. Родители не готовы принять тот факт, что дети стремительно взрослеют и что каждый подросток – личность, имеющий право выбора. Им мешают собственные комплексы и неуверенность в себе, боязнь сделать первый шаг и страх, что тебя не любят и оттолкнут...
    Доп. информация:

    Рип: waarheid
    Сэмпл:

    Качество видео: WEB-DLRip [Исходник: WEB-DL 1080p]
    Формат видео: AVI
    Видео: 720x400 (1.80:1), 25 fps, XviD build 73 ~1540 kbps avg, 0.21 bit/pixel
    Аудио: 48 kHz, AC3 Dolby Digital, 3/2 (L,C,R,l,r) + LFE ch, ~384 kbps

    MediaInfo

    Общее
    Полное имя : 14+_WEB-DLRip_by_waarheid.avi
    Формат : AVI
    Формат/Информация : Audio Video Interleave
    Размер файла : 1,44 Гбайт
    Продолжительность : 1 ч. 46 м.
    Общий поток : 1934 Кбит/сек
    Программа кодирования : VirtualDubMod 1.5.10.3 | www.virtualdub-fr.org || (build 2550/release)
    Видео
    Идентификатор : 0
    Формат : MPEG-4 Visual
    Профиль формата : Advanced Simple@L5
    Параметр BVOP формата : 1
    Параметр QPel формата : Нет
    Параметр GMC формата : Без точки перехода
    Параметр матрицы формата : Выборочная
    Идентификатор кодека : XVID
    Идентификатор кодека/Подсказка : XviD
    Продолжительность : 1 ч. 46 м.
    Битрейт : 1540 Кбит/сек
    Ширина : 720 пикселей
    Высота : 400 пикселей
    Соотношение сторон : 16:9
    Частота кадров : 25,000 кадров/сек
    Цветовое пространство : YUV
    Субдискретизация насыщенности : 4:2:0
    Битовая глубина : 8 бит
    Тип развёртки : Прогрессивная
    Метод сжатия : С потерями
    Бит/(Пиксели*Кадры) : 0.214
    Размер потока : 1,15 Гбайт (80%)
    Библиотека кодирования : XviD 73
    Аудио
    Идентификатор : 1
    Формат : AC-3
    Формат/Информация : Audio Coding 3
    Расширение режима : CM (complete main)
    Параметр Endianness формата : Big
    Идентификатор кодека : 2000
    Продолжительность : 1 ч. 46 м.
    Вид битрейта : Постоянный
    Битрейт : 384 Кбит/сек
    Каналы : 6 каналов
    Расположение каналов : Front: L C R, Side: L R, LFE
    Частота : 48,0 КГц
    Частота кадров : 31,250 кадров/сек (1536 spf)
    Метод сжатия : С потерями
    Размер потока : 292 Мбайт (20%)
    Выравнивание : Разделение по промежуткам
    Продолжительность промежутка : 40 мс. (1,00 видеокадр)
    Время предзагрузки промежутка : 500 мс.

    Скриншот c названием фильма

    Скриншоты

    Скачать .torrent

    Скачать торрент-файл бесплатно и на максимальной скорости!

    Как скачивать? · Что такое торрент? · Рейтинг и ограничения

    !ВНИМАНИЕ!
    Сайт не распространяет и не хранит электронные версии произведений, а занимается лишь лишь предоставлением доступа к создаваемому пользователями каталогу ссылок на торрент-файлы, которые содержат только списки хеш-сумм, убедительная просьба с жалобами обращаться напрямую к пользователю. Файлы для обмена на трекере предоставлены пользователями сайта, и администрация не несёт ответственности за их содержание. Просьба не заливать файлы, защищенные авторскими правами, а также файлы нелегального содержания!


    _________________
    [Профиль] [ЛС]
    Показать сообщения:    
    Ответить на тему

    Текущее время: Сегодня, в 11:35

    Часовой пояс: GMT + 2



    Вы не можете начинать темы
    Вы не можете отвечать на сообщения
    Вы не можете редактировать свои сообщения
    Вы не можете удалять свои сообщения
    Вы не можете голосовать в опросах
    Вы не можете прикреплять файлы к сообщениям
    Вы не можете скачивать файлы