BitTorrentTracker PerecTracker.org
BitTorrentTracker PerecTracker.org
    
Регистрация  ·  Вход
 
 · 
Забыли пароль?

  • Любовь напрокат (Вазген Каграманян) [2014, Россия, Мелодрама, комедия, WEB-DLRip]

    Ответить на тему
     
    Автор Сообщение

    Flirldrerve

    Создавать темы 23-Апр-2016 13:25

           

    [Цитировать]

    Любовь напрокат
    Страна: Россия
    Жанр: Мелодрама, комедия
    Год выпуска: 2014
    Продолжительность: 01:40:05
    Cубтитры: нет
    Оригинальная аудиодорожка: русский-Режиссер: Вазген Каграманян-В ролях: Елена Подкаминская, Дмитрий Миллер, Елена Валюшкина, Грант Каграманян, Иван Шмаков, Евгения Соляных, Михаил Полицеймако, Алина Ольшанская, Анжела Белянская, Екатерина Рокотова-Описание: К преуспевающему бизнесмену Александру приезжает богатая родственница из Америки. 15 лет назад она дала ему начальный капитал и теперь хочет посмотреть, как он им распорядился, а также познакомиться с его семьей. Но проблема в том, что семьи у Александра нет: он ее выдумал, чтобы произвести хорошее впечатление на тетю. Если обман откроется, Александр может лишиться своего бизнеса и наследства. Друг Борис предлагает неожиданный выход: взять напрокат его семью…-
    -Качество видео: WEB-DLRip | WEB-DL 1080p -BLUEBIRD
    Формат видео: AVI
    Видео: 656x368 (1.78:1), 25 fps, XviD build 73 ~902 kbps avg, 0.15 bit/pixel
    Аудио: 48 kHz, MPEG Layer 3, 2 ch, ~128.00 kbps avg-Скачать сэмпл

    MediaInfo

    Format                      : AVI
    Format/Info                 : Audio Video Interleave
    File size                   : 745 MiB
    Duration                    : 1h 40mn
    Overall bit rate            : 1 041 Kbps
    Writing application         : VirtualDubMod 1.5.10.3 | www.virtualdub-fr.org || (build 2550/release)
    Writing library             : VirtualDubMod build 2550/release
    Video
    ID                          : 0
    Format                      : MPEG-4 Visual
    Format profile              : Advanced Simple@L5
    Format settings, BVOP       : 1
    Format settings, QPel       : No
    Format settings, GMC        : No warppoints
    Format settings, Matrix     : Custom
    Codec ID                    : XVID
    Codec ID/Hint               : XviD
    Duration                    : 1h 40mn
    Bit rate                    : 903 Kbps
    Width                       : 656 pixels
    Height                      : 368 pixels
    Display aspect ratio        : 16:9
    Frame rate                  : 25.000 fps
    Color space                 : YUV
    Chroma subsampling          : 4:2:0
    Bit depth                   : 8 bits
    Scan type                   : Progressive
    Compression mode            : Lossy
    Bits/(Pixel*Frame)          : 0.150
    Stream size                 : 646 MiB (87%)
    Writing library             : XviD 73
    Audio
    ID                          : 1
    Format                      : MPEG Audio
    Format version              : Version 1
    Format profile              : Layer 3
    Codec ID                    : 55
    Codec ID/Hint               : MP3
    Duration                    : 1h 40mn
    Bit rate mode               : Constant
    Bit rate                    : 128 Kbps
    Channel(s)                  : 2 channels
    Sampling rate               : 48.0 KHz
    Compression mode            : Lossy
    Stream size                 : 91.6 MiB (12%)
    Alignment                   : Aligned on interleaves
    Interleave, duration        : 40 ms (1.00 video frame)
    Interleave, preload duratio : 504 ms
    Writing library             : LAME3.99r
    Encoding settings           : -m s -V 4 -q 2 -lowpass 17 -b 128

    Скриншоты

    Скачать .torrent

    Скачать торрент-файл бесплатно и на максимальной скорости!

    Как скачивать? · Что такое торрент? · Рейтинг и ограничения

    !ВНИМАНИЕ!
    Сайт не распространяет и не хранит электронные версии произведений, а занимается лишь лишь предоставлением доступа к создаваемому пользователями каталогу ссылок на торрент-файлы, которые содержат только списки хеш-сумм, убедительная просьба с жалобами обращаться напрямую к пользователю. Файлы для обмена на трекере предоставлены пользователями сайта, и администрация не несёт ответственности за их содержание. Просьба не заливать файлы, защищенные авторскими правами, а также файлы нелегального содержания!


    _________________
    [Профиль] [ЛС]
    Показать сообщения:    
    Ответить на тему

    Текущее время: Сегодня, в 12:40

    Часовой пояс: GMT + 2



    Вы не можете начинать темы
    Вы не можете отвечать на сообщения
    Вы не можете редактировать свои сообщения
    Вы не можете удалять свои сообщения
    Вы не можете голосовать в опросах
    Вы не можете прикреплять файлы к сообщениям
    Вы не можете скачивать файлы