BitTorrentTracker PerecTracker.org
BitTorrentTracker PerecTracker.org
    
Регистрация  ·  Вход
 
 · 
Забыли пароль?

  • На грани безумия / Грань здравомыслия / Грань разума / На грани сумасшествия / Edge Of Sanity (Жерар Кикоин / Gérard Kikoïne) [1989, Великобритания, Франция, Венгрия, США, ужасы, BDRemux 1080p] DVO + AVO + Sub Eng + Original Eng

    Ответить на тему
     
    Автор Сообщение

    Light

    Создавать темы 23-Апр-2016 13:24

           

    [Цитировать]

    -На грани безумия / Грань здравомыслия /Грань разума / На грани сумасшествия / Edge Of Sanity-Страна: Великобритания, Франция, Венгрия, США
    Жанр: ужасы, триллер
    Год выпуска: 1989
    Продолжительность: 01:30:49-Перевод: Профессиональный (двухголосый закадровый) НТВ+
    Перевод 2: Авторский (одноголосый закадровый) Владимир Штейн
    Cубтитры: английские
    Оригинальная аудиодорожка: английский-Режиссер: Жерар Кикоин / Gérard Kikoïne
    В ролях: Энтони Перкинс, Глайнис Барбер, Сара Маур Торп, Дэвид Лодж, Бен Коул, Рэй Джюэрс, Лиза Дэвис, Джил Мелфорд-Описание: Вольная экранизация повести Роберта Луиса Стивенсона «Доктор Джекилл и мистер Хайд». Режиссер, как почти все его предшественники, обращавшиеся к известной книге Стивенсона, поручил одному и тому же актеру двойную главную роль — и Энтони Перкинс сыграл то, что от него требовалось.
    Самое любопытное, пожалуй, то, что патологическим извращенцем в его интерпретации стал не только Джек Хайд, убийца проституток, но и доктор Генри Джекилл, вполне респектабельный гражданин общества.-Сэмпл-Тип релиза: BDRemux 1080p
    Контейнер: MKV
    Видео: MPEG-4 AVC Video 28999 kbps 1080p / 23.976 fps / 16:9 / High Profile 4.1
    Аудио: Russian / Dolby Digital Audio / 2.0 / 48 kHz / 192 kbps | НТВ+
    Аудио 2: Russian / Dolby Digital Audio / 2.0 / 48 kHz / 192 kbps | Штейн
    Аудио 3: DTS-HD Master Audio English 1688 kbps 2.0 / 48 kHz / 1688 kbps / 24-bit (DTS Core: 2.0 / 48 kHz / 1509 kbps / 24-bit
    Формат субтитров: softsub (SRT)

    MI

    GeneralUnique ID : 223545696542840091707761876941903797298 (0xA82D55C8875BB543A745334BA8C89C32)Complete name : S:\На хранении\На грани безумия (1989. Edge of Sanity).mkvFormat : MatroskaFormat version : Version 4 / Version 2File size : 19.6 GiBDuration : 1h 30mnOverall bit rate mode : VariableOverall bit rate : 30.9 MbpsMovie name : Release for RuTrackerEncoded date : UTC 2016-04-21 18:57:41Writing application : mkvmerge v9.0.1 ('Obstacles') 64bitWriting library : libebml v1.3.3 + libmatroska v1.4.4Cover : YesAttachments : cover.jpg
    VideoID : 1Format : AVCFormat/Info : Advanced Video CodecFormat profile : High@L4.1Format settings, CABAC : YesFormat settings, ReFrames : 4 framesCodec ID : V_MPEG4/ISO/AVCDuration : 1h 30mnBit rate mode : VariableBit rate : 28.9 MbpsMaximum bit rate : 33.0 MbpsWidth : 1 920 pixelsHeight : 1 080 pixelsDisplay aspect ratio : 16:9Frame rate mode : ConstantFrame rate : 23.976 (24000/1001) fpsColor space : YUVChroma subsampling : 4:2:0Bit depth : 8 bitsScan type : ProgressiveBits/(Pixel*Frame) : 0.580Stream size : 18.3 GiB (93%)Language : EnglishDefault : YesForced : No
    Audio #1ID : 2Format : AC-3Format/Info : Audio Coding 3Mode extension : CM (complete main)Format settings, Endianness : BigCodec ID : A_AC3Duration : 1h 30mnBit rate mode : ConstantBit rate : 192 KbpsChannel(s) : 2 channelsChannel positions : Front: L RSampling rate : 48.0 KHzFrame rate : 31.250 fps (1536 spf)Compression mode : LossyStream size : 125 MiB (1%)Title : DVO [НТВ+]Language : RussianDefault : YesForced : No
    Audio #2ID : 3Format : AC-3Format/Info : Audio Coding 3Mode extension : CM (complete main)Format settings, Endianness : BigCodec ID : A_AC3Duration : 1h 30mnBit rate mode : ConstantBit rate : 192 KbpsChannel(s) : 2 channelsChannel positions : Front: L RSampling rate : 48.0 KHzFrame rate : 31.250 fps (1536 spf)Compression mode : LossyStream size : 125 MiB (1%)Title : Владимир ШтейнLanguage : RussianDefault : NoForced : No
    Audio #3ID : 4Format : DTSFormat/Info : Digital Theater SystemsFormat profile : MA / CoreMode : 16Format settings, Endianness : BigCodec ID : A_DTSDuration : 1h 30mnBit rate mode : Variable / ConstantBit rate : 1 687 Kbps / 1 509 KbpsChannel(s) : 2 channelsChannel positions : Front: L RSampling rate : 48.0 KHzFrame rate : 93.750 fps (512 spf)Bit depth : 24 bitsCompression mode : Lossless / LossyStream size : 1.07 GiB (5%)Language : EnglishDefault : NoForced : No
    Text #1ID : 5Format : UTF-8Codec ID : S_TEXT/UTF8Codec ID/Info : UTF-8 Plain TextDuration : 1h 25mnBit rate : 43 bpsCount of elements : 797Stream size : 27.0 KiB (0%)Language : EnglishDefault : NoForced : No
    Text #2ID : 6Format : UTF-8Codec ID : S_TEXT/UTF8Codec ID/Info : UTF-8 Plain TextDuration : 1h 28mnBit rate : 45 bpsCount of elements : 922Stream size : 29.6 KiB (0%)Title : SDHLanguage : EnglishDefault : NoForced : No
    Menu00:00:00.000 : en:00:00:00.00000:10:39.472 : en:00:10:39.47200:23:52.431 : en:00:23:52.43100:34:35.532 : en:00:34:35.53200:46:34.375 : en:00:46:34.37500:58:40.434 : en:00:58:40.43401:14:19.497 : en:01:14:19.49701:28:21.838 : en:01:28:21.838
    Скриншоты

    Зеркало


    Цитата:
    Цитата:

    • За дороги спасибо Spiellberg с
    • Сохранены оригинальные чаптеры как на Blu-ray.
    Скачать .torrent

    Скачать торрент-файл бесплатно и на максимальной скорости!

    Как скачивать? · Что такое торрент? · Рейтинг и ограничения

    !ВНИМАНИЕ!
    Сайт не распространяет и не хранит электронные версии произведений, а занимается лишь лишь предоставлением доступа к создаваемому пользователями каталогу ссылок на торрент-файлы, которые содержат только списки хеш-сумм, убедительная просьба с жалобами обращаться напрямую к пользователю. Файлы для обмена на трекере предоставлены пользователями сайта, и администрация не несёт ответственности за их содержание. Просьба не заливать файлы, защищенные авторскими правами, а также файлы нелегального содержания!


    _________________
    [Профиль] [ЛС]
    Показать сообщения:    
    Ответить на тему

    Текущее время: Сегодня, в 13:34

    Часовой пояс: GMT + 2



    Вы не можете начинать темы
    Вы не можете отвечать на сообщения
    Вы не можете редактировать свои сообщения
    Вы не можете удалять свои сообщения
    Вы не можете голосовать в опросах
    Вы не можете прикреплять файлы к сообщениям
    Вы не можете скачивать файлы