BitTorrentTracker PerecTracker.org
BitTorrentTracker PerecTracker.org
    
Регистрация  ·  Вход
 
 · 
Забыли пароль?

  • Джейн берёт ружьё / Jane Got a Gun (Гэвин О’Коннор / Gavin O\'Connor) [2016, США, боевик, драма, вестерн, BDRemux 1080p] Dub (RUS BD) + Sub Eng + Original Eng

    Ответить на тему
     
    Автор Сообщение

    Light

    Создавать темы 23-Апр-2016 13:24

           

    [Цитировать]

    -Джейн берёт ружьё / Jane Got a Gun-Страна: США
    Жанр: боевик, драма, вестерн
    Год выпуска: 2016
    Продолжительность: 01:37:59-Перевод: Профессиональный (дублированный) RUS BD
    Cубтитры: английские
    Оригинальная аудиодорожка: английский-Режиссер: Гэвин О’Коннор / Gavin O'Connor
    В ролях: Натали Портман, Джоэл Эдгертон, Юэн МакГрегор, Ноа Эммерик, Бойд Холбрук, Родриго Санторо, Джеймс Барнетт, Сэм Куинн, , Дженни Гэбриэлль-Описание: Головорезы МакКэна преследуют попытавшегося отбиться от банды Хэма. Изрешеченный пулями, он укрывается на ранчо своей красавицы-жены Джейн. Ей приходится обратиться за защитой к тому, кого она хотела бы видеть меньше всего, - к своему бывшему любовнику. Джейн нужно забыть прошлое, совладать с чувствами и стать сильной и бескомпромиссной, чтобы спасти семью от расправы банды наемников.-Сэмпл-Тип релиза: BDRemux 1080p
    Контейнер: MKV
    Видео: MPEG-4 AVC Video / 22968 kbps / 1080p / 23.976 fps / 16:9 / High Profile 4.1
    Аудио: Russian / DTS-HD Master Audio / 5.1 / 48 kHz / 3668 kbps / 24-bit (DTS Core: 5.1 / 48 kHz / 1509 kbps / 24-bit)
    Аудио 2: English / DTS-HD Master Audio / 5.1 / 48 kHz / 3492 kbps / 24-bit (DTS Core: 5.1 / 48 kHz / 1509 kbps / 24-bit)
    Формат субтитров: softsub (SRT)

    MI

    GeneralUnique ID : 191755403493995953489001162328685781728 (0x9042BF52E6948E5AA9142BFA8711A2E0)Complete name : S:\На хранении\Джейн берёт ружьё (2015. Jane Got a Gun).mkvFormat : MatroskaFormat version : Version 4 / Version 2File size : 20.6 GiBDuration : 1h 37mnOverall bit rate mode : VariableOverall bit rate : 30.1 MbpsMovie name : Release for RuTrackerEncoded date : UTC 2016-04-22 07:46:32Writing application : mkvmerge v9.0.1 ('Obstacles') 64bitWriting library : libebml v1.3.3 + libmatroska v1.4.4
    VideoID : 1Format : AVCFormat/Info : Advanced Video CodecFormat profile : High@L4.1Format settings, CABAC : YesFormat settings, ReFrames : 4 framesFormat settings, GOP : M=3, N=24Codec ID : V_MPEG4/ISO/AVCDuration : 1h 37mnBit rate mode : VariableBit rate : 23.0 MbpsMaximum bit rate : 35.0 MbpsWidth : 1 920 pixelsHeight : 1 080 pixelsDisplay aspect ratio : 16:9Frame rate mode : ConstantFrame rate : 23.976 (24000/1001) fpsStandard : NTSCColor space : YUVChroma subsampling : 4:2:0Bit depth : 8 bitsScan type : ProgressiveBits/(Pixel*Frame) : 0.462Stream size : 15.7 GiB (76%)Title : Jane Got a Gun 2015 1080p Blu-ray AVC DTS-HD MA 5.1-MTeamLanguage : EnglishDefault : NoForced : NoColor range : LimitedColor primaries : BT.709Transfer characteristics : BT.709Matrix coefficients : BT.709
    Audio #1ID : 2Format : DTSFormat/Info : Digital Theater SystemsFormat profile : MA / CoreMode : 16Format settings, Endianness : BigCodec ID : A_DTSDuration : 1h 37mnBit rate mode : Variable / ConstantBit rate : 3 668 Kbps / 1 509 KbpsChannel(s) : 6 channelsChannel positions : Front: L C R, Side: L R, LFESampling rate : 48.0 KHzFrame rate : 93.750 fps (512 spf)Bit depth : 24 bitsCompression mode : Lossless / LossyStream size : 2.51 GiB (12%)Title : ДубляжLanguage : RussianDefault : YesForced : No
    Audio #2ID : 3Format : DTSFormat/Info : Digital Theater SystemsFormat profile : MA / CoreMode : 16Format settings, Endianness : BigCodec ID : A_DTSDuration : 1h 37mnBit rate mode : Variable / ConstantBit rate : 3 492 Kbps / 1 509 KbpsChannel(s) : 6 channelsChannel positions : Front: L C R, Side: L R, LFESampling rate : 48.0 KHzFrame rate : 93.750 fps (512 spf)Bit depth : 24 bitsCompression mode : Lossless / LossyStream size : 2.39 GiB (12%)Language : EnglishDefault : NoForced : No
    Text #1ID : 4Format : UTF-8Codec ID : S_TEXT/UTF8Codec ID/Info : UTF-8 Plain TextDuration : 1h 30mnBit rate : 35 bpsCount of elements : 847Stream size : 23.2 KiB (0%)Language : EnglishDefault : NoForced : No
    Text #2ID : 5Format : UTF-8Codec ID : S_TEXT/UTF8Codec ID/Info : UTF-8 Plain TextDuration : 1h 37mnBit rate : 40 bpsCount of elements : 1174Stream size : 29.1 KiB (0%)Title : SDHLanguage : EnglishDefault : NoForced : No
    Menu00:00:00.000 : en:Chapter 0100:04:08.414 : en:Chapter 0200:09:51.257 : en:Chapter 0300:15:45.903 : en:Chapter 0400:23:52.264 : en:Chapter 0500:30:41.297 : en:Chapter 0600:35:32.797 : en:Chapter 0700:41:13.679 : en:Chapter 0800:47:20.254 : en:Chapter 0900:53:17.360 : en:Chapter 1001:00:58.821 : en:Chapter 1101:09:51.729 : en:Chapter 1201:17:42.574 : en:Chapter 1301:23:30.213 : en:Chapter 1401:27:12.018 : en:Chapter 1501:31:18.806 : en:Chapter 16
    Скриншоты

    Зеркало


    Цитата:
    Цитата:

    • Русский звук с русского BD. За него спасибо .
    • Видео и оригинальный звук с BD от MTeam.
    • Сохранены оригинальные чаптеры как на Blu-ray.
    Скачать .torrent

    Скачать торрент-файл бесплатно и на максимальной скорости!

    Как скачивать? · Что такое торрент? · Рейтинг и ограничения

    !ВНИМАНИЕ!
    Сайт не распространяет и не хранит электронные версии произведений, а занимается лишь лишь предоставлением доступа к создаваемому пользователями каталогу ссылок на торрент-файлы, которые содержат только списки хеш-сумм, убедительная просьба с жалобами обращаться напрямую к пользователю. Файлы для обмена на трекере предоставлены пользователями сайта, и администрация не несёт ответственности за их содержание. Просьба не заливать файлы, защищенные авторскими правами, а также файлы нелегального содержания!


    _________________
    [Профиль] [ЛС]
    Показать сообщения:    
    Ответить на тему

    Текущее время: Сегодня, в 00:23

    Часовой пояс: GMT + 2



    Вы не можете начинать темы
    Вы не можете отвечать на сообщения
    Вы не можете редактировать свои сообщения
    Вы не можете удалять свои сообщения
    Вы не можете голосовать в опросах
    Вы не можете прикреплять файлы к сообщениям
    Вы не можете скачивать файлы