BitTorrentTracker PerecTracker.org
BitTorrentTracker PerecTracker.org
    
Регистрация  ·  Вход
 
 · 
Забыли пароль?

  • Джейн берёт ружьё / Jane Got a Gun (Гэвин О’Коннор / Gavin O\'Connor) [2016, США, боевик, драма, вестерн, BDRip 1080p] Dub (RUS BD) + Sub Eng + Original Eng

    Ответить на тему
     
    Автор Сообщение

    Light

    Создавать темы 23-Апр-2016 13:24

           

    [Цитировать]

    -Джейн берёт ружьё / Jane Got a Gun-Страна: США
    Жанр: боевик, драма, вестерн
    Год выпуска: 2016
    Продолжительность: 01:37:59-Перевод: Профессиональный (дублированный) RUS BD
    Cубтитры: английские
    Оригинальная аудиодорожка: английский-Режиссер: Гэвин О’Коннор / Gavin O'Connor
    В ролях: Натали Портман, Джоэл Эдгертон, Юэн МакГрегор, Ноа Эммерик, Бойд Холбрук, Родриго Санторо, Джеймс Барнетт, Сэм Куинн, , Дженни Гэбриэлль-Описание: Головорезы МакКэна преследуют попытавшегося отбиться от банды Хэма. Изрешеченный пулями, он укрывается на ранчо своей красавицы-жены Джейн. Ей приходится обратиться за защитой к тому, кого она хотела бы видеть меньше всего, - к своему бывшему любовнику. Джейн нужно забыть прошлое, совладать с чувствами и стать сильной и бескомпромиссной, чтобы спасти семью от расправы банды наемников.-Сэмпл-Тип релиза: BDRip 1080p
    Контейнер: MKV
    Видео: MPEG-4 AVC Video / 12900 kbps / 1920 x 800 p / 23.976 fps / High Profile 4.1
    Аудио: Russian / DTS Audio / 5.1 / 48 kHz / 1509 kbps
    Аудио 2: English / DTS Audio / 5.1 / 48 kHz / 1509 kbps
    Формат субтитров: softsub (SRT)

    Видеоряд от DON

    ----------------------MOViE iNFO------------------------
    Jane Got a Gun 2015 1080p BluRay DTS x264-DON
    RELEASE SiZE...: 10.0 GiBRUNTiME........: 1h 37mnViDEO CODEC....: x264 High@L4.1FRAMERATE......: 23.976 fpsBiTRATE........: Variable 12.9 MbpsASPECT RATiO...: 2.40:1RESOLUTiON.....: 1920 x 800AUDiO..........: English DTS 6ch @ 1509 KbpsCHAPTERS.......: YesSOURCE.........: 1080p Blu-ray AVC DTS-HD MA 5.1-MTeam ~ Thanks yony !SUBTiTLES......: English, English-SDH, Arabic, Bulgarian, Spanish. (srt)
    ENCODER........: hungdaita @ DONRELEASE.DATE...: 07/04/2016
    .x264 iNFO:--crf 17 --preset veryslow --me umh --subme 11 --bframes 8 --deblock -3:-3 --ipratio 1.30 --pbratio 1.20--psy-rd 1.05 --qcomp 0.65 --aq-strength 0.70 --merange 32 --no-fast-pskip --no-mbtree --no-dct-decimate
    .x264 LOG:x264 [info]: frame I:951 Avg QP:13.43 size:191658x264 [info]: frame P:27645 Avg QP:14.89 size:113954x264 [info]: frame B:112364 Avg QP:16.17 size: 56332x264 [info]: consecutive B-frames: 1.6% 2.1% 6.3% 5.8% 7.5% 70.0% 3.3% 0.8% 2.6%
    encoded 140960 frames, 5.536 fps, 13147.69 kb/s, 9214.6 MB ~ encoding duration 7:04:22
    .NOTES:* Debanding Filter was applied.* Special thanks: Nick007, BodoiCuHo, v0danh, taker0704, riverstore, riverhd, Friday, AraGorN, NOiZE and my friends !

    MI

    GeneralUnique ID : 210481936641964238433597603959753030070 (0x9E5958B1271F8A26B586E22CDE5639B6)Complete name : S:\На хранении\Джейн берёт ружьё (2015. Jane Got a Gun) 1080p.mkvFormat : MatroskaFormat version : Version 4 / Version 2File size : 11.1 GiBDuration : 1h 37mnOverall bit rate : 16.2 MbpsMovie name : Release for RuTrackerEncoded date : UTC 2016-04-22 08:21:59Writing application : mkvmerge v9.0.1 ('Obstacles') 64bitWriting library : libebml v1.3.3 + libmatroska v1.4.4Cover : YesAttachments : cover.jpg
    VideoID : 1Format : AVCFormat/Info : Advanced Video CodecFormat profile : High@L4.1Format settings, CABAC : YesFormat settings, ReFrames : 5 framesCodec ID : V_MPEG4/ISO/AVCDuration : 1h 37mnBit rate : 13.1 MbpsWidth : 1 920 pixelsHeight : 800 pixelsDisplay aspect ratio : 2.40:1Frame rate mode : ConstantFrame rate : 23.976 (24000/1001) fpsColor space : YUVChroma subsampling : 4:2:0Bit depth : 8 bitsScan type : ProgressiveBits/(Pixel*Frame) : 0.357Stream size : 9.00 GiB (81%)Title : Jane Got a Gun 2015 1080p BluRay DTS x264-DONWriting library : x264 core 142 r2431+42 c69a006 tMod [8-bit@all X86_64]Encoding settings : cabac=1 / ref=5 / deblock=1:-3:-3 / analyse=0x3:0x133 / me=umh / subme=11 / psy=1 / fade_compensate=0.00 / psy_rd=1.05:0.00 / mixed_ref=1 / me_range=32 / chroma_me=1 / trellis=2 / 8x8dct=1 / cqm=0 / deadzone=21,11 / fast_pskip=0 / chroma_qp_offset=-2 / threads=12 / lookahead_threads=2 / sliced_threads=0 / nr=0 / decimate=0 / interlaced=0 / bluray_compat=0 / constrained_intra=0 / fgo=0 / bframes=8 / b_pyramid=2 / b_adapt=2 / b_bias=0 / direct=3 / weightb=1 / open_gop=0 / weightp=2 / keyint=250 / keyint_min=23 / scenecut=40 / intra_refresh=0 / rc_lookahead=60 / rc=crf / mbtree=0 / crf=17.0000 / qcomp=0.65 / qpmin=0:0:0 / qpmax=69:69:69 / qpstep=4 / vbv_maxrate=62500 / vbv_bufsize=78125 / crf_max=0.0 / nal_hrd=none / filler=0 / ip_ratio=1.30 / pb_ratio=1.20 / aq=3:0.70 / aq-sensitivity=10.00 / aq-factor=1.00:1.00:1.00 / aq2=0 / aq3=0 / zones=25,217,crf=15/4341,4370,crf=14/14886,14981,crf=14/19639,19766,crf=14/73799,73870,crf=14/75964,76071,crf=15/77804,77869,crf=14/132820,140740,crf=20Language : EnglishDefault : YesForced : NoColor range : LimitedMatrix coefficients : BT.709
    Audio #1ID : 2Format : DTSFormat/Info : Digital Theater SystemsMode : 16Format settings, Endianness : BigCodec ID : A_DTSDuration : 1h 37mnBit rate mode : ConstantBit rate : 1 509 KbpsChannel(s) : 6 channelsChannel positions : Front: L C R, Side: L R, LFESampling rate : 48.0 KHzFrame rate : 93.750 fps (512 spf)Bit depth : 24 bitsCompression mode : LossyStream size : 1.03 GiB (9%)Title : ДубляжLanguage : RussianDefault : YesForced : No
    Audio #2ID : 3Format : DTSFormat/Info : Digital Theater SystemsMode : 16Format settings, Endianness : BigCodec ID : A_DTSDuration : 1h 37mnBit rate mode : ConstantBit rate : 1 509 KbpsChannel(s) : 6 channelsChannel positions : Front: L C R, Side: L R, LFESampling rate : 48.0 KHzFrame rate : 93.750 fps (512 spf)Bit depth : 24 bitsCompression mode : LossyStream size : 1.03 GiB (9%)Language : EnglishDefault : NoForced : No
    Text #1ID : 4Format : UTF-8Codec ID : S_TEXT/UTF8Codec ID/Info : UTF-8 Plain TextDuration : 1h 30mnBit rate : 35 bpsCount of elements : 847Stream size : 23.2 KiB (0%)Language : EnglishDefault : NoForced : No
    Text #2ID : 5Format : UTF-8Codec ID : S_TEXT/UTF8Codec ID/Info : UTF-8 Plain TextDuration : 1h 37mnBit rate : 40 bpsCount of elements : 1174Stream size : 29.1 KiB (0%)Title : SDHLanguage : EnglishDefault : NoForced : No
    Menu00:00:00.000 : en:Chapter 100:04:08.206 : en:Chapter 200:09:51.632 : en:Chapter 300:15:45.402 : en:Chapter 400:23:51.847 : en:Chapter 500:30:41.506 : en:Chapter 600:35:32.421 : en:Chapter 700:41:13.804 : en:Chapter 800:47:19.711 : en:Chapter 900:53:17.652 : en:Chapter 1001:00:59.030 : en:Chapter 1101:09:51.770 : en:Chapter 1201:17:42.824 : en:Chapter 1301:23:30.547 : en:Chapter 1401:27:11.684 : en:Chapter 1501:31:18.848 : en:Chapter 16
    Скриншоты

    Зеркало


    Цитата:
    Цитата:

    • Русский звук с русского BD. За него спасибо .
    • Сохранены оригинальные чаптеры как на Blu-ray.
    Скачать .torrent

    Скачать торрент-файл бесплатно и на максимальной скорости!

    Как скачивать? · Что такое торрент? · Рейтинг и ограничения

    !ВНИМАНИЕ!
    Сайт не распространяет и не хранит электронные версии произведений, а занимается лишь лишь предоставлением доступа к создаваемому пользователями каталогу ссылок на торрент-файлы, которые содержат только списки хеш-сумм, убедительная просьба с жалобами обращаться напрямую к пользователю. Файлы для обмена на трекере предоставлены пользователями сайта, и администрация не несёт ответственности за их содержание. Просьба не заливать файлы, защищенные авторскими правами, а также файлы нелегального содержания!


    _________________
    [Профиль] [ЛС]
    Показать сообщения:    
    Ответить на тему

    Текущее время: Сегодня, в 10:42

    Часовой пояс: GMT + 2



    Вы не можете начинать темы
    Вы не можете отвечать на сообщения
    Вы не можете редактировать свои сообщения
    Вы не можете удалять свои сообщения
    Вы не можете голосовать в опросах
    Вы не можете прикреплять файлы к сообщениям
    Вы не можете скачивать файлы