BitTorrentTracker PerecTracker.org
BitTorrentTracker PerecTracker.org
    
Регистрация  ·  Вход
 
 · 
Забыли пароль?

  • Адмирал / Михил Де Рюйтер / Michiel de Ruyter (Роэль Рейн / Roel Reiné) [2015, Нидерланды, боевик, биография, история, BDRip 1080p] AVO (Ю.Сербин) + Sub Rus, Eng + Original Dut

    Ответить на тему
     
    Автор Сообщение

    Light

    Создавать темы 23-Апр-2016 13:24

           

    [Цитировать]

    Адмирал / Михил Де Рюйтер / Michiel de Ruyter
    Страна: Нидерланды
    Жанр: боевик, биография, история
    Год выпуска: 2015
    Продолжительность: 02:31:53
    Перевод: Авторский (одноголосый закадровый) Ю.Сербин
    Cубтитры: русские, англиские
    Оригинальная аудиодорожка: нидерландский--Режиссер: Роэль Рейн / Roel Reiné--В ролях: Франк Ламерс, Барри Атсма, Рёланд Фернхут, Эгберт Ян Вебер, Тиго Гернандт, Дерек де Линт, Хайо Брюинс, Жуль Кройсет...--Описание: Михил Рюйтер был одним из самых главных новаторов в боевой технике. Он стал героем голландского флота. В то время как Голландию, находившуюся на грани гражданской войны, атаковали со всех сторон, лишь один человек пытался бороться за интересы страны - Михаил Рюйтер. Но в глазах власть имущих его успехи делали его слишком популярным, и Рюйтера отправили на смертельно опасное задание…--Доп. информация: | IMDB | КиноПоиск | Сэмпл |--Тип релиза: BDRip 1080p
    Контейнер: MKV
    Видео: AVC, 1920x806, 24.000 fps, 10.4 Mbps avg
    Аудио 1: DTS, 3/2 (L,C,R,l,r) + LFE ch, 48 kHz, 1509 kbps
    Аудио 2: DTS, 3/2 (L,C,R,l,r) + LFE ch, 48 kHz, 1509 kbps
    Формат субтитров: softsub (SRT)

    MediaInfo

    General
    Unique ID : 220474425096213636514781889559978523220 (0xA5DDD468F3A29D08BD73356AE5633A54)
    Complete name : Michiel de Ruyter.2015.mkv
    Format : Matroska
    Format version : Version 4 / Version 2
    File size : 14.2 GiB
    Duration : 2h 31mn
    Overall bit rate : 13.4 Mbps
    Movie name : Michiel de Ruyter (2015) - Encode by SbR
    Encoded date : UTC 2016-04-22 06:44:34
    Writing application : mkvmerge v8.2.0 ('World of Adventure') 64bit
    Writing library : libebml v1.3.1 + libmatroska v1.4.2
    Cover : Yes
    Attachments : cover.jpg / xlog.txt
    Video
    ID : 1
    Format : AVC
    Format/Info : Advanced Video Codec
    Format profile : High@L4.1
    Format settings, CABAC : Yes
    Format settings, ReFrames : 5 frames
    Codec ID : V_MPEG4/ISO/AVC
    Duration : 2h 31mn
    Bit rate : 10.4 Mbps
    Width : 1 920 pixels
    Height : 806 pixels
    Display aspect ratio : 2.40:1
    Frame rate mode : Constant
    Frame rate : 24.000 fps
    Color space : YUV
    Chroma subsampling : 4:2:0
    Bit depth : 8 bits
    Scan type : Progressive
    Bits/(Pixel*Frame) : 0.279
    Stream size : 11.0 GiB (77%)
    Title : Release for HDCLUB
    Writing library : x264 core 148 r2665kMod a01e339
    Encoding settings : cabac=1 / ref=5 / deblock=1:-2:-2 / analyse=0x3:0x133 / me=umh / subme=11 / psy=1 / fade_compensate=0.00 / psy_rd=1.00:0.00 / mixed_ref=1 / me_range=32 / chroma_me=1 / trellis=2 / 8x8dct=1 / cqm=0 / deadzone=21,11 / fast_pskip=1 / chroma_qp_offset=-2 / threads=12 / lookahead_threads=3 / sliced_threads=0 / nr=0 / decimate=1 / interlaced=0 / bluray_compat=0 / constrained_intra=0 / fgo=0 / bframes=10 / b_pyramid=2 / b_adapt=2 / b_bias=0 / direct=1 / weightb=1 / open_gop=0 / weightp=2 / keyint=250 / keyint_min=24 / scenecut=40 / intra_refresh=0 / rc_lookahead=60 / rc=crf / mbtree=0 / crf=15.5000 / qcomp=0.60 / qpmin=0 / qpmax=69 / qpstep=4 / vbv_maxrate=62500 / vbv_bufsize=78125 / crf_max=0.0 / nal_hrd=none / filler=0 / ip_ratio=1.40 / pb_ratio=1.30 / aq=1:0.80
    Language : Dutch
    Default : Yes
    Forced : No
    Color range : Limited
    Color primaries : BT.709
    Transfer characteristics : BT.709
    Matrix coefficients : BT.709
    Audio #1
    ID : 2
    Format : DTS
    Format/Info : Digital Theater Systems
    Mode : 16
    Format settings, Endianness : Big
    Codec ID : A_DTS
    Duration : 2h 31mn
    Bit rate mode : Constant
    Bit rate : 1 509 Kbps
    Channel(s) : 6 channels
    Channel positions : Front: L C R, Side: L R, LFE
    Sampling rate : 48.0 KHz
    Frame rate : 93.750 fps (512 spf)
    Bit depth : 16 bits
    Compression mode : Lossy
    Stream size : 1.60 GiB (11%)
    Title : Сербин
    Language : Russian
    Default : Yes
    Forced : No
    Audio #2
    ID : 3
    Format : DTS
    Format/Info : Digital Theater Systems
    Mode : 16
    Format settings, Endianness : Big
    Codec ID : A_DTS
    Duration : 2h 31mn
    Bit rate mode : Constant
    Bit rate : 1 509 Kbps
    Channel(s) : 6 channels
    Channel positions : Front: L C R, Side: L R, LFE
    Sampling rate : 48.0 KHz
    Frame rate : 93.750 fps (512 spf)
    Bit depth : 16 bits
    Compression mode : Lossy
    Stream size : 1.60 GiB (11%)
    Language : Dutch
    Default : No
    Forced : No
    Text #1
    ID : 4
    Format : UTF-8
    Codec ID : S_TEXT/UTF8
    Codec ID/Info : UTF-8 Plain Text
    Duration : 2h 22mn
    Bit rate : 66 bps
    Count of elements : 1091
    Stream size : 69.3 KiB (0%)
    Language : Russian
    Default : No
    Forced : No
    Text #2
    ID : 5
    Format : UTF-8
    Codec ID : S_TEXT/UTF8
    Codec ID/Info : UTF-8 Plain Text
    Duration : 2h 20mn
    Bit rate : 33 bps
    Count of elements : 952
    Stream size : 34.3 KiB (0%)
    Language : English
    Default : No
    Forced : No
    Menu
    00:00:00.000 : en:Chapter 1
    00:15:20.707 : en:Chapter 2
    00:32:30.875 : en:Chapter 3
    00:49:20.875 : en:Chapter 4
    00:59:50.666 : en:Chapter 5
    01:19:50.416 : en:Chapter 6
    01:39:18.791 : en:Chapter 7
    01:55:04.666 : en:Chapter 8
    02:10:07.500 : en:Chapter 9

    Скриншоты

    Скачать .torrent

    Скачать торрент-файл бесплатно и на максимальной скорости!

    Как скачивать? · Что такое торрент? · Рейтинг и ограничения

    !ВНИМАНИЕ!
    Сайт не распространяет и не хранит электронные версии произведений, а занимается лишь лишь предоставлением доступа к создаваемому пользователями каталогу ссылок на торрент-файлы, которые содержат только списки хеш-сумм, убедительная просьба с жалобами обращаться напрямую к пользователю. Файлы для обмена на трекере предоставлены пользователями сайта, и администрация не несёт ответственности за их содержание. Просьба не заливать файлы, защищенные авторскими правами, а также файлы нелегального содержания!


    _________________
    [Профиль] [ЛС]
    Показать сообщения:    
    Ответить на тему

    Текущее время: Сегодня, в 07:59

    Часовой пояс: GMT + 2



    Вы не можете начинать темы
    Вы не можете отвечать на сообщения
    Вы не можете редактировать свои сообщения
    Вы не можете удалять свои сообщения
    Вы не можете голосовать в опросах
    Вы не можете прикреплять файлы к сообщениям
    Вы не можете скачивать файлы