BitTorrentTracker PerecTracker.org
BitTorrentTracker PerecTracker.org
    
Регистрация  ·  Вход
 
 · 
Забыли пароль?

  • Смешарики. Легенда о золотом драконе (Денис Чернов) [2016, Россия, мультфильм, приключения, комедия, WEB-DL HD (100p, 720p)] Original

    Ответить на тему
     
    Автор Сообщение

    Flirldrerve

    Создавать темы 23-Апр-2016 01:12

           

    [Цитировать]

    Смешарики. Легенда о золотом драконе / Смешарики. Легенда о золотом драконе
    "Предпоследняя надежда человечества"
    6.585 / 10
    -Год выпуска: 2016
    Страна: Россия
    Жанр: мультфильм, приключения, комедия
    Продолжительность: 85 мин.
    Перевод: Не требуется
    Оригинальная аудиодорожка: Есть
    Cубтитры: Нет
    Режиссёр: Денис Чернов
    Сценарий: Денис Чернов, Дмитрий Яковенко
    Продюсер: Илья Попов, Анатолий Прохоров, Фёдор Бондарчук
    Композитор: Сергей Васильев, Марина Ланда
    В ролях: Михаил Черняк, Сергей Мардарь, Антон Виноградов, Владимир Постников, Светлана Письмиченко, Вадим Бочанов, Гарик Харламов, Дмитрий Нагиев, Елена Шульман, Владимир Маслаков
    Бюджет: $15 000 000
    Сборы в России: $3 978 050
    Мировая премьера: 17 марта 2016
    Премьера (РФ): 17 марта 2016, UPI, 3D
    Описание: Выдающийся учёный и его команда отправляются в самое сердце диких джунглей, где их ждут опасные приключения, свирепые туземцы и расхитители гробниц, до зубов вооруженные гаджетами.-Качество исходника: WEB-DL (iTunes Russia)
    Качество: WEB-DL
    Тип: 720p 1080p
    Контейнер: m4v
    Видео: 1280x532 at 23.976 fps, MPEG-4 AVC, ~4000 kbps avg
    Видео: 1912x796 at 23.976 fps, MPEG-4 AVC, ~4500 kbps avg
    Аудио#1: Russian: 48 kHz, ААС, 2/0 (L,R), ~160.00 kbps avg
    Аудио#2: Russian: 48 kHz, AC3, 3/2 (L,C,R,l,r) + LFE ch, ~384.00 kbps avg-

    iTunes Meta Tags for country ru

    Name: Смешарики. Легенда о золотом драконе
    Artist: Денис Чернов
    Genre: Kids & Family
    Release Date: 2016-03-17T08:00:00Z
    Description: Выдающийся учёный и его команда отправляются в самое сердце диких джунглей, где их ждут опасные приключения, свирепые туземцы и расхитители гробниц, до зубов вооруженные гаджетами.
    Long Description: Выдающийся учёный и его команда отправляются в самое сердце диких джунглей, где их ждут опасные приключения, свирепые туземцы и расхитители гробниц, до зубов вооруженные гаджетами.
    Rating: 6+
    Studio: ООО "Смешарики"
    Cast: Михаил Черняк, Сергей Мардарь, Антон Виноградов, Владимир Постников, Светлана Письмиченко, Вадим Бочанов, Гарик Харламов, Дмитрий Нагиев, Елена Шульман, Владимир Маслаков
    Director: Денис Чернов
    Producers: Илья Попов, Анатолий Прохоров, Фёдор Бондарчук
    Screenwriters: Денис Чернов, Дмитрий Яковенко
    contentID: 1100093760
    XID: Apple:vendor_id:2016-840161
    Sort Name: Смешарики. Легенда о золотом драконе

    MediaInfo 720p Release

    Общее
    Полное имя : Смешарики. Легенда о золотом драконе (HD).m4v
    Формат : MPEG-4
    Идентификатор кодека : M4V  (M4V /M4A /mp42/isom)
    Размер файла : 2,57 Гбайт
    Продолжительность : 1 ч. 20 м.
    Режим общего битрейта : Переменный
    Общий поток : 4589 Кбит/сек
    Название фильма : Смешарики. Легенда о золотом драконе
    Исполнитель : Денис Чернов
    Режиссёр : Денис Чернов
    Исполнитель : Михаил Черняк / Сергей Мардарь / Антон Виноградов / Владимир Постников / Светлана Письмиченко / Вадим Бочанов / Гарик Харламов / Дмитрий Нагиев / Елена Шульман / Владимир Маслаков
    Сценарист : Денис Чернов / Дмитрий Яковенко
    Продюсер : Илья Попов / Анатолий Прохоров / Фёдор Бондарчук
    Студия-производитель : ООО "Смешарики"
    Жанр : Kids & Family
    Тип содержимого : Short Film
    Описание : Выдающийся учёный и его команда отправляются в самое сердце диких джунглей, где их ждут опасные приключения, свирепые туземцы и расхитители гробниц, до зубов вооруженные гаджетами.
    Дата записи : UTC 2016-03-17 08:00:00
    Дата кодирования : UTC 2016-04-22 20:22:21
    Дата пометки : UTC 2016-04-22 20:34:58
    Обложка : Yes
    Оценка : None
    Title/Sort : Смешарики. Легенда о золотом драконе
    LongDescription : Выдающийся учёный и его команда отправляются в самое сердце диких джунглей, где их ждут опасные приключения, свирепые туземцы и расхитители гробниц, до зубов вооруженные гаджетами.
    HDVideo : Yes
    AppleStoreCatalogID : 1100093760
    Vendor : Apple:vendor_id:2016-840161
    ContentRating : ru-movie|6+|150|
    Видео #1
    Идентификатор : 1
    Формат : AVC
    Формат/Информация : Advanced Video Codec
    Профиль формата : Main@L3.1
    Параметр CABAC формата : Нет
    Параметр ReFrames формата : 2 кадра
    Параметр GOP формата : M=2, N=90
    Идентификатор кодека : avc1
    Идентификатор кодека/Информация : Advanced Video Coding
    Продолжительность : 1 ч. 20 м.
    Битрейт : 4031 Кбит/сек
    Ширина : 1280 пикселей
    Высота : 532 пикселя
    Соотношение сторон : 2,40:1
    Режим частоты кадров : Переменный
    Частота кадров : 23,976 (24000/1001) кадра/сек
    Минимальная частота кадров : 23,810 кадра/сек
    Максимальная частота кадров : 24,390 кадра/сек
    Цветовое пространство : YUV
    Субдискретизация насыщенности : 4:2:0
    Битовая глубина : 8 бит
    Тип развёртки : Прогрессивная
    Бит/(Пиксели*Кадры) : 0.247
    Размер потока : 2,26 Гбайт (88%)
    Заголовок : Main Program
    Язык : English
    Дата кодирования : UTC 2016-04-22 20:22:22
    Дата пометки : UTC 2016-04-22 20:31:18
    Цветовой диапазон : Limited
    Основные цвета : BT.709
    Характеристики трансфера : BT.709
    Коэффициенты матрицы : BT.709
    Menus : 4,5
    Видео #2
    Идентификатор : 5
    Формат : JPEG
    Идентификатор кодека : jpeg
    Продолжительность : 1 ч. 20 м.
    Вид битрейта : Переменный
    Битрейт : 671 бит/сек
    Ширина : 640 пикселей
    Высота : 266 пикселей
    Соотношение сторон : 2,40:1
    Режим частоты кадров : Переменный
    Частота кадров : 0,002 кадр/сек
    Минимальная частота кадров : 0,001 кадр/сек
    Максимальная частота кадров : 0,007 кадр/сек
    Цветовое пространство : YUV
    Субдискретизация насыщенности : 4:2:0
    Битовая глубина : 8 бит
    Метод сжатия : С потерями
    Бит/(Пиксели*Кадры) : 1.971
    Размер потока : 368 Кбайт (0%)
    Заголовок : Chapter Images
    Язык : English
    Default : Нет
    Дата кодирования : UTC 2016-04-22 20:31:22
    Дата пометки : UTC 2016-04-22 20:31:23
    Menu For : 1
    Аудио #1
    Идентификатор : 2
    Формат : AAC
    Формат/Информация : Advanced Audio Codec
    Профиль формата : LC
    Идентификатор кодека : 40
    Продолжительность : 1 ч. 20 м.
    Вид битрейта : Переменный
    Битрейт : 166 Кбит/сек
    Максимальный битрейт : 276 Кбит/сек
    Каналы : 2 канала
    Расположение каналов : Front: L R
    Частота : 48,0 КГц
    Частота кадров : 46,875 кадров/сек (1024 spf)
    Метод сжатия : С потерями
    Размер потока : 95,1 Мбайт (4%)
    Заголовок : Russian Stereo
    Язык : Russian
    Default : Да
    Alternate group : 1
    Дата кодирования : UTC 2016-04-22 20:22:22
    Дата пометки : UTC 2016-04-22 20:25:03
    Fallback From : 3
    Menus : 4
    Аудио #2
    Идентификатор : 3
    Формат : AC-3
    Формат/Информация : Audio Coding 3
    Расширение режима : CM (complete main)
    Параметр Endianness формата : Big
    Идентификатор кодека : ac-3
    Продолжительность : 1 ч. 20 м.
    Вид битрейта : Постоянный
    Битрейт : 384 Кбит/сек
    Каналы : 6 каналов
    Расположение каналов : Front: L C R, Side: L R, LFE
    Частота : 48,0 КГц
    Частота кадров : 31,250 кадров/сек (1536 spf)
    Битовая глубина : 16 бит
    Метод сжатия : С потерями
    Размер потока : 221 Мбайт (8%)
    Заголовок : Russian DD 5.1
    Язык : Russian
    Default : Inherited From: 2
    Alternate group : 1
    Дата кодирования : UTC 2016-04-22 20:22:22
    Дата пометки : UTC 2016-04-22 20:25:03
    Fallback To : 2
    Меню #1
    00:00:00.000 : 1
    00:02:26.000 : 2
    00:12:38.000 : 3
    00:20:06.000 : 4
    00:30:21.000 : 5
    00:41:12.000 : 6
    00:52:53.000 : 7
    01:01:34.000 : 8
    01:14:38.000 : 9
    Меню #2
    Идентификатор : 4
    Идентификатор кодека : text
    Продолжительность : 1 ч. 20 м.
    Заголовок : Chapter Titles
    Язык : Russian
    Дата кодирования : UTC 2016-04-22 20:31:18
    Дата пометки : UTC 2016-04-22 20:31:18
    Вид битрейта : CBR
    Menu For : 2,1
    00:00:00.000 : 1
    00:02:26.000 : 2
    00:12:38.000 : 3
    00:20:06.000 : 4
    00:30:21.000 : 5
    00:41:12.000 : 6
    00:52:53.000 : 7
    01:01:34.000 : 8
    01:14:38.000 : 9

    MediaInfo 1080p Release

    Общее
    Полное имя : Смешарики. Легенда о золотом драконе (1080p HD).m4v
    Формат : MPEG-4
    Идентификатор кодека : M4V  (M4V /M4A /mp42/isom)
    Размер файла : 2,84 Гбайт
    Продолжительность : 1 ч. 20 м.
    Режим общего битрейта : Переменный
    Общий поток : 5058 Кбит/сек
    Название фильма : Смешарики. Легенда о золотом драконе
    Исполнитель : Денис Чернов
    Режиссёр : Денис Чернов
    Исполнитель : Михаил Черняк / Сергей Мардарь / Антон Виноградов / Владимир Постников / Светлана Письмиченко / Вадим Бочанов / Гарик Харламов / Дмитрий Нагиев / Елена Шульман / Владимир Маслаков
    Сценарист : Денис Чернов / Дмитрий Яковенко
    Продюсер : Илья Попов / Анатолий Прохоров / Фёдор Бондарчук
    Студия-производитель : ООО "Смешарики"
    Жанр : Kids & Family
    Тип содержимого : Short Film
    Описание : Выдающийся учёный и его команда отправляются в самое сердце диких джунглей, где их ждут опасные приключения, свирепые туземцы и расхитители гробниц, до зубов вооруженные гаджетами.
    Дата записи : UTC 2016-03-17 08:00:00
    Дата кодирования : UTC 2016-04-22 17:07:53
    Дата пометки : UTC 2016-04-22 17:10:39
    Обложка : Yes
    Оценка : None
    Title/Sort : Смешарики. Легенда о золотом драконе
    LongDescription : Выдающийся учёный и его команда отправляются в самое сердце диких джунглей, где их ждут опасные приключения, свирепые туземцы и расхитители гробниц, до зубов вооруженные гаджетами.
    AppleStoreCatalogID : 1100093760
    Vendor : Apple:vendor_id:2016-840161
    ContentRating : ru-movie|6+|150|
    Видео #1
    Идентификатор : 1
    Формат : AVC
    Формат/Информация : Advanced Video Codec
    Профиль формата : High@L4
    Параметр CABAC формата : Да
    Параметр ReFrames формата : 5 кадров
    Идентификатор кодека : avc1
    Идентификатор кодека/Информация : Advanced Video Coding
    Продолжительность : 1 ч. 20 м.
    Битрейт : 4500 Кбит/сек
    Ширина : 1912 пикселей
    Высота : 796 пикселей
    Соотношение сторон : 2,40:1
    Режим частоты кадров : Переменный
    Частота кадров : 23,976 (24000/1001) кадра/сек
    Минимальная частота кадров : 23,810 кадра/сек
    Максимальная частота кадров : 24,390 кадра/сек
    Цветовое пространство : YUV
    Субдискретизация насыщенности : 4:2:0
    Битовая глубина : 8 бит
    Тип развёртки : Прогрессивная
    Бит/(Пиксели*Кадры) : 0.123
    Размер потока : 2,52 Гбайт (89%)
    Заголовок : Main Program
    Язык : Russian
    Дата кодирования : UTC 2016-04-22 17:07:53
    Дата пометки : UTC 2016-04-22 17:09:58
    Цветовой диапазон : Limited
    Основные цвета : BT.709
    Характеристики трансфера : BT.709
    Коэффициенты матрицы : BT.709
    Menus : 4,5
    Видео #2
    Идентификатор : 5
    Формат : JPEG
    Идентификатор кодека : jpeg
    Продолжительность : 1 ч. 20 м.
    Вид битрейта : Переменный
    Битрейт : 590 бит/сек
    Ширина : 640 пикселей
    Высота : 266 пикселей
    Соотношение сторон : 2,40:1
    Режим частоты кадров : Переменный
    Частота кадров : 0,002 кадр/сек
    Минимальная частота кадров : 0,001 кадр/сек
    Максимальная частота кадров : 0,007 кадр/сек
    Цветовое пространство : YUV
    Субдискретизация насыщенности : 4:2:0
    Битовая глубина : 8 бит
    Метод сжатия : С потерями
    Бит/(Пиксели*Кадры) : 1.733
    Размер потока : 324 Кбайт (0%)
    Заголовок : Chapter Images
    Язык : Russian
    Default : Нет
    Дата кодирования : UTC 2016-04-22 17:10:02
    Дата пометки : UTC 2016-04-22 17:10:02
    Menu For : 1
    Аудио #1
    Идентификатор : 2
    Формат : AAC
    Формат/Информация : Advanced Audio Codec
    Профиль формата : LC
    Идентификатор кодека : 40
    Продолжительность : 1 ч. 20 м.
    Вид битрейта : Переменный
    Битрейт : 166 Кбит/сек
    Максимальный битрейт : 276 Кбит/сек
    Каналы : 2 канала
    Расположение каналов : Front: L R
    Частота : 48,0 КГц
    Частота кадров : 46,875 кадров/сек (1024 spf)
    Метод сжатия : С потерями
    Размер потока : 95,1 Мбайт (3%)
    Заголовок : Russian Stereo
    Язык : Russian
    Default : Да
    Alternate group : 1
    Дата кодирования : UTC 2016-04-22 17:07:53
    Дата пометки : UTC 2016-04-22 17:07:57
    Fallback From : 3
    Menus : 4
    Аудио #2
    Идентификатор : 3
    Формат : AC-3
    Формат/Информация : Audio Coding 3
    Расширение режима : CM (complete main)
    Параметр Endianness формата : Big
    Идентификатор кодека : ac-3
    Продолжительность : 1 ч. 20 м.
    Вид битрейта : Постоянный
    Битрейт : 384 Кбит/сек
    Каналы : 6 каналов
    Расположение каналов : Front: L C R, Side: L R, LFE
    Частота : 48,0 КГц
    Частота кадров : 31,250 кадров/сек (1536 spf)
    Битовая глубина : 16 бит
    Метод сжатия : С потерями
    Размер потока : 221 Мбайт (8%)
    Заголовок : Russian DD 5.1
    Язык : Russian
    Default : Inherited From: 2
    Alternate group : 1
    Дата кодирования : UTC 2016-04-22 17:07:53
    Дата пометки : UTC 2016-04-22 17:09:58
    Fallback To : 2
    Меню #1
    00:00:00.000 : 1
    00:02:26.000 : 2
    00:12:38.000 : 3
    00:20:06.000 : 4
    00:30:21.000 : 5
    00:41:12.000 : 6
    00:52:53.000 : 7
    01:01:34.000 : 8
    01:14:38.000 : 9
    Меню #2
    Идентификатор : 4
    Идентификатор кодека : text
    Продолжительность : 1 ч. 20 м.
    Заголовок : Chapter Titles
    Язык : Russian
    Дата кодирования : UTC 2016-04-22 17:09:58
    Дата пометки : UTC 2016-04-22 17:09:58
    Вид битрейта : CBR
    Menu For : 2,1
    00:00:00.000 : 1
    00:02:26.000 : 2
    00:12:38.000 : 3
    00:20:06.000 : 4
    00:30:21.000 : 5
    00:41:12.000 : 6
    00:52:53.000 : 7
    01:01:34.000 : 8
    01:14:38.000 : 9

    Скриншоты 720p Release

    -

    Релиз подготовлен для просмотра на Apple TV, iPad, iPhone, iPod Touch.
    Для просмотра данного релиза на компьютере с ОС Windows рекомендуется использовать VLC media player
    Скачать .torrent

    Скачать торрент-файл бесплатно и на максимальной скорости!

    Как скачивать? · Что такое торрент? · Рейтинг и ограничения

    !ВНИМАНИЕ!
    Сайт не распространяет и не хранит электронные версии произведений, а занимается лишь лишь предоставлением доступа к создаваемому пользователями каталогу ссылок на торрент-файлы, которые содержат только списки хеш-сумм, убедительная просьба с жалобами обращаться напрямую к пользователю. Файлы для обмена на трекере предоставлены пользователями сайта, и администрация не несёт ответственности за их содержание. Просьба не заливать файлы, защищенные авторскими правами, а также файлы нелегального содержания!


    _________________
    [Профиль] [ЛС]
    Показать сообщения:    
    Ответить на тему

    Текущее время: Сегодня, в 21:31

    Часовой пояс: GMT + 2



    Вы не можете начинать темы
    Вы не можете отвечать на сообщения
    Вы не можете редактировать свои сообщения
    Вы не можете удалять свои сообщения
    Вы не можете голосовать в опросах
    Вы не можете прикреплять файлы к сообщениям
    Вы не можете скачивать файлы