BitTorrentTracker PerecTracker.org
BitTorrentTracker PerecTracker.org
    
Регистрация  ·  Вход
 
 · 
Забыли пароль?

  • Мой король / Mon roi (Майвенн Ле Беско / Maïwenn Le Besco) [2015, Франция, Драма, мелодрама, HDRip] MVO

    Ответить на тему
     
    Автор Сообщение

    Light

    Создавать темы 22-Апр-2016 21:00

           

    [Цитировать]

    -Мой король
    Mon roi
    -Страна: Франция
    Жанр: Драма, мелодрама
    Год выпуска: 2015
    Продолжительность: 02:05:32-Перевод: Профессиональный (многоголосый закадровый)
    Cубтитры: нет-Режиссер: Майвенн Ле Беско / Maïwenn Le Besco-В ролях: Венсан Кассель, Эмманюэль Берко, Луи Гаррель, Изильд Ле Беско, Кристель Сэйнт Луис Огустен, Патрик Рейналь, Ян Говен, Поль Ами, Джамел Барек, Слим Эль Хедли-Описание: Тони знакомится на вечеринке с Джорджио, и легкое увлечение перерастает в настоящую страсть. Десять лет всепоглощающей любви, полной безоглядного счастья и ослепляющей ревности. Оказавшись наедине с собой, Тони возвращается в мыслях к отношениям с Джоржио. Кто был этот человек? Кем она стала рядом с ним? Тони предстоит долгая работа, которая излечит душу и смягчит сердце.- -Качество видео: HDRip (исходник не известен)
    Формат видео: AVI
    Видео: XviD 720x304 23.98fps 1950kbps 0.355 Bits/(Pixel*Frame)
    Аудио: AC3 48kHz 6ch 384kbps-

    MediaInfo

    General
    Complete name               : D:\Фильмы\MonRoi 2015 HDRip.avi
    Format                      : AVI
    Format/Info                 : Audio Video Interleave
    Format profile              : OpenDML
    File size                   : 2.05 GiB
    Duration                    : 2h 5mn
    Overall bit rate            : 2 349 Kbps
    Writing application         : VirtualDubMod 1.5.10.2 (build 2540/release)
    Writing library             : VirtualDubMod build 2540/release
    Video
    ID                          : 0
    Format                      : MPEG-4 Visual
    Format profile              : Advanced Simple@L5
    Format settings, BVOP       : 2
    Format settings, QPel       : No
    Format settings, GMC        : No warppoints
    Format settings, Matrix     : Default (MPEG)
    Codec ID                    : XVID
    Codec ID/Hint               : XviD
    Duration                    : 2h 5mn
    Bit rate                    : 1 953 Kbps
    Width                       : 720 pixels
    Height                      : 304 pixels
    Display aspect ratio        : 2.35:1
    Frame rate                  : 24.000 fps
    Color space                 : YUV
    Chroma subsampling          : 4:2:0
    Bit depth                   : 8 bits
    Scan type                   : Progressive
    Compression mode            : Lossy
    Bits/(Pixel*Frame)          : 0.372
    Stream size                 : 1.71 GiB (83%)
    Writing library             : XviD 1.2.1 (UTC 2008-12-04)
    Audio
    ID                          : 1
    Format                      : AC-3
    Format/Info                 : Audio Coding 3
    Mode extension              : CM (complete main)
    Format settings, Endianness : Big
    Codec ID                    : 2000
    Duration                    : 2h 5mn
    Bit rate mode               : Constant
    Bit rate                    : 384 Kbps
    Channel(s)                  : 6 channels
    Channel positions           : Front: L C R, Side: L R, LFE
    Sampling rate               : 48.0 KHz
    Frame rate                  : 31.250 fps (1536 spf)
    Compression mode            : Lossy
    Stream size                 : 344 MiB (16%)
    Alignment                   : Split accross interleaves
    Interleave, duration        : 42 ms (1.00 video frame)
    Interleave, preload duratio : 500 ms

    -

    Скриншот c названием фильма


    -

    Скриншоты

    Скачать .torrent

    Скачать торрент-файл бесплатно и на максимальной скорости!

    Как скачивать? · Что такое торрент? · Рейтинг и ограничения

    !ВНИМАНИЕ!
    Сайт не распространяет и не хранит электронные версии произведений, а занимается лишь лишь предоставлением доступа к создаваемому пользователями каталогу ссылок на торрент-файлы, которые содержат только списки хеш-сумм, убедительная просьба с жалобами обращаться напрямую к пользователю. Файлы для обмена на трекере предоставлены пользователями сайта, и администрация не несёт ответственности за их содержание. Просьба не заливать файлы, защищенные авторскими правами, а также файлы нелегального содержания!


    _________________
    [Профиль] [ЛС]
    Показать сообщения:    
    Ответить на тему

    Текущее время: Сегодня, в 14:34

    Часовой пояс: GMT + 2



    Вы не можете начинать темы
    Вы не можете отвечать на сообщения
    Вы не можете редактировать свои сообщения
    Вы не можете удалять свои сообщения
    Вы не можете голосовать в опросах
    Вы не можете прикреплять файлы к сообщениям
    Вы не можете скачивать файлы