BitTorrentTracker PerecTracker.org
BitTorrentTracker PerecTracker.org
    
Регистрация  ·  Вход
 
 · 
Забыли пароль?

  • Колючка и Молчун: Путешествие в Рай! / Strit og Stumme (Янник Хаструп / Jannik Hastrup) [1987, Дания, Комедия, семейный, фантастика, приключения, мультф, DVDRip] VO (Max Nabokov)

    Ответить на тему
     
    Автор Сообщение

    Flirldrerve

    Создавать темы 22-Апр-2016 21:00

           

    [Цитировать]

    Колючка и Молчун: Путешествие в Рай / Strit og Stumme
    Страна: Дания
    Жанр: Комедия, семейный, фантастика, приключения, мультфильм
    Продолжительность: 1:17:12
    Год выпуска: 1987
    Перевод: Одноголосый закадровый (Max Nabokov)
    Русские субтитры: нет
    Режиссёр: Янник Хаструп / Jannik Hastrup
    Роли озвучивали: Jesper Schou, Anne Marie Helger, Jess Ingerslev, Томми Кентер, Per Pallesen, Луи Миэ-Ренар, Клаус Рискьяр, Berthe Qvistgaard.
    Описание: В будущем загрязнение окружающей среды загнало людей под землю, и теперь лишь в легендах говорилось о Рае снаружи. Вдохновившись этими историями, двое детей пытаются найти путь наверх, но в исполнении мечты им могут помешать злобные человекоподобные крысы
    Качество: DVDRip
    Формат: AVI
    Видео: 720x432 (1.67:1), 25 fps, XviD build 50 ~2231 kbps avg, 0.29 bit/pixel
    Аудио 1: 48 kHz, AC3 Dolby Digital, 2/0 (L,R) ch, ~192.00 kbps avg (рус)
    Аудио 2: 48 kHz, AC3 Dolby Digital, 2/0 (L,R) ch, ~192.00 kbps avg (дат)
    Семпл: http://multi-up.com/1098653

    Подробные технические данные

    GeneralComplete name : D:\MOVIE\Strit og Stumme.1987.Danish.DVDRip.(Max Nabokov).aviFormat : AVIFormat/Info : Audio Video InterleaveFile size : 1.31 GiBDuration : 1h 17mnOverall bit rate : 2 434 KbpsWriting application : VirtualDubMod 1.5.10.2 (build 2540/release)Writing library : VirtualDubMod build 2540/release
    VideoID : 0Format : MPEG-4 VisualFormat profile : Advanced Simple@L5Format settings, BVOP : 1Format settings, QPel : NoFormat settings, GMC : No warppointsFormat settings, Matrix : Default (H.263)Codec ID : XVIDCodec ID/Hint : XviDDuration : 1h 17mnBit rate : 2 232 KbpsWidth : 720 pixelsHeight : 432 pixelsDisplay aspect ratio : 5:3Frame rate : 25.000 fpsColor space : YUVChroma subsampling : 4:2:0Bit depth : 8 bitsScan type : ProgressiveCompression mode : LossyBits/(Pixel*Frame) : 0.287Stream size : 1.20 GiB (92%)Writing library : XviD 1.2.1 (UTC 2008-12-04)
    AudioID : 1Format : AC-3Format/Info : Audio Coding 3Mode extension : CM (complete main)Format settings, Endianness : BigCodec ID : 2000Duration : 1h 17mnBit rate mode : ConstantBit rate : 192 KbpsChannel(s) : 2 channelsChannel positions : Front: L RSampling rate : 48.0 KHzFrame rate : 31.250 fps (1536 spf)Compression mode : LossyStream size : 106 MiB (8%)Alignment : Split accross interleavesInterleave, duration : 40 ms (1.00 video frame)Interleave, preload duration : 500 ms
    Audio #2ID : 2Format : AC-3Format/Info : Audio Coding 3Mode extension : CM (complete main)Format settings, Endianness : BigCodec ID : 2000Duration : 1h 17mnBit rate mode : ConstantBit rate : 192 KbpsChannel(s) : 2 channelsChannel positions : Front: L RSampling rate : 48.0 KHzFrame rate : 31.250 fps (1536 spf)Compression mode : LossyStream size : 106 MiB (7%)Alignment : Split accross interleavesInterleave, duration : 40 ms (1.00 video frame)Interleave, preload duration : 500 ms

    Скриншоты




    Скачать .torrent

    Скачать торрент-файл бесплатно и на максимальной скорости!

    Как скачивать? · Что такое торрент? · Рейтинг и ограничения

    !ВНИМАНИЕ!
    Сайт не распространяет и не хранит электронные версии произведений, а занимается лишь лишь предоставлением доступа к создаваемому пользователями каталогу ссылок на торрент-файлы, которые содержат только списки хеш-сумм, убедительная просьба с жалобами обращаться напрямую к пользователю. Файлы для обмена на трекере предоставлены пользователями сайта, и администрация не несёт ответственности за их содержание. Просьба не заливать файлы, защищенные авторскими правами, а также файлы нелегального содержания!


    _________________
    [Профиль] [ЛС]
    Показать сообщения:    
    Ответить на тему

    Текущее время: Сегодня, в 20:03

    Часовой пояс: GMT + 2



    Вы не можете начинать темы
    Вы не можете отвечать на сообщения
    Вы не можете редактировать свои сообщения
    Вы не можете удалять свои сообщения
    Вы не можете голосовать в опросах
    Вы не можете прикреплять файлы к сообщениям
    Вы не можете скачивать файлы