BitTorrentTracker PerecTracker.org
BitTorrentTracker PerecTracker.org
    
Регистрация  ·  Вход
 
 · 
Забыли пароль?

  • Римский-Корсаков (Геннадий Казанский, Григорий Рошаль) [1953, драма, биография, музыка, DVDRip]

    Ответить на тему
     
    Автор Сообщение

    Flirldrerve

    Создавать темы 22-Апр-2016 16:49

           

    [Цитировать]

    Римский-Корсаков
    Жанр: драма, биография, музыка
    Год выпуска: 1953
    Продолжительность: 01:47:02
    Режиссёр: Геннадий Казанский, Григорий Рошаль
    В ролях: Григорий Белов, Николай Черкасов, Александр Борисов, Лилия Гриценко, Виктор Хохряков, Анатолий Кузнецов (II), Лидия Сухаревская, Александр Огнивцев, Борис Коковкин, Сергей Курилов, Лидия Драновская, Анатолий Вербицкий, Татьяна Ленникова, Агаси Бабаян, Бруно Фрейндлих, Владимир Балашов, Фёдор Никитин...
    Описание: Костюмный биографический фильм о Николае Андреевиче Римском-Корсакове (1844-1908), русском композиторе, дирижере и музыкально-общественном деятеле, одном из организаторов и вдохновителей "Могучей кучки".
    Автор рипа: AVPStudio
    Сэмпл: http://multi-up.com/1098632
    Качество видео: DVDRip (DVD5 R5)
    Формат видео: AVI
    Видео: 576x432 (4:3), 25 fps, XviD ~ 836 kbps avg, 0.134 bit/pixel
    Аудио: 48 kHz, MP3 2.0, 128 kbps

    MediaInfo

    General
    Complete name : D:\Видео\Советское кино\Римский-Корсаков.1953.DVDRip.avi
    Format : AVI
    Format/Info : Audio Video Interleave
    File size : 746 MiB
    Duration : 1h 47mn
    Overall bit rate : 974 Kbps
    Writing application : VirtualDubMod 1.5.10.3 | www.virtualdub-fr.org || (build 2550/release)
    Writing library : VirtualDubMod build 2550/release
    Video
    ID : 0
    Format : MPEG-4 Visual
    Format profile : Advanced Simple@L5
    Format settings, BVOP : 1
    Format settings, QPel : No
    Format settings, GMC : No warppoints
    Format settings, Matrix : Custom
    Codec ID : XVID
    Codec ID/Hint : XviD
    Duration : 1h 47mn
    Bit rate : 836 Kbps
    Width : 576 pixels
    Height : 432 pixels
    Display aspect ratio : 4:3
    Frame rate : 25.000 fps
    Color space : YUV
    Chroma subsampling : 4:2:0
    Bit depth : 8 bits
    Scan type : Progressive
    Compression mode : Lossy
    Bits/(Pixel*Frame) : 0.134
    Stream size : 640 MiB (86%)
    Writing library : XviD 1.2.1 (UTC 2008-12-04)
    Audio
    ID : 1
    Format : MPEG Audio
    Format version : Version 1
    Format profile : Layer 3
    Codec ID : 55
    Codec ID/Hint : MP3
    Duration : 1h 47mn
    Bit rate mode : Constant
    Bit rate : 128 Kbps
    Channel(s) : 2 channels
    Sampling rate : 48.0 KHz
    Compression mode : Lossy
    Stream size : 98.0 MiB (13%)
    Alignment : Aligned on interleaves
    Interleave, duration : 40 ms (1.00 video frame)
    Interleave, preload duration : 504 ms
    Writing library : LAME3.99r
    Encoding settings : -m s -V 4 -q 2 -lowpass 17 -b 128

    Скриншоты





    Скачать .torrent

    Скачать торрент-файл бесплатно и на максимальной скорости!

    Как скачивать? · Что такое торрент? · Рейтинг и ограничения

    !ВНИМАНИЕ!
    Сайт не распространяет и не хранит электронные версии произведений, а занимается лишь лишь предоставлением доступа к создаваемому пользователями каталогу ссылок на торрент-файлы, которые содержат только списки хеш-сумм, убедительная просьба с жалобами обращаться напрямую к пользователю. Файлы для обмена на трекере предоставлены пользователями сайта, и администрация не несёт ответственности за их содержание. Просьба не заливать файлы, защищенные авторскими правами, а также файлы нелегального содержания!


    _________________
    [Профиль] [ЛС]
    Показать сообщения:    
    Ответить на тему

    Текущее время: Сегодня, в 16:27

    Часовой пояс: GMT + 2



    Вы не можете начинать темы
    Вы не можете отвечать на сообщения
    Вы не можете редактировать свои сообщения
    Вы не можете удалять свои сообщения
    Вы не можете голосовать в опросах
    Вы не можете прикреплять файлы к сообщениям
    Вы не можете скачивать файлы