BitTorrentTracker PerecTracker.org
BitTorrentTracker PerecTracker.org
    
Регистрация  ·  Вход
 
 · 
Забыли пароль?

  • Коттедж / Западня / The Cottage (Пол Эндрю Уильямс / Paul Andrew Williams) [2008, Великобритания, ужасы, триллер, комедия, криминал, WEB-DL 720p] VO (Максим Логинофф) + Sub Eng + Original Eng

    Ответить на тему
     
    Автор Сообщение

    Light

    Создавать темы 22-Апр-2016 16:48

           

    [Цитировать]

    Коттедж / Западня / The Cottage
    Страна: Великобритания
    Жанр: ужасы, триллер, комедия, криминал
    Год выпуска: 2008
    Продолжительность: 01:31:32
    Перевод: Одноголосый закадровый Максим Логинофф
    Cубтитры: английские
    Оригинальная аудиодорожка: английский
    Режиссер: Пол Эндрю Уильямс / Paul Andrew Williams
    В ролях: Энди Серкис, Рис Шерсмит, Дженнифер Эллисон, Стив О’Доннелл, Джеймс Биерман, Кэт Мичер, Дэнни Нуссбаум, Логан Вонг, Джонатан Чан-Пинсли, Саймон Шатцбергер...
    Описание: Два незадачливых брата похитили дочь известного мафиози. В ожидании выкупа они привезли её в старый коттедж, расположенный в глухом районе Англии. Все бы хорошо, но мафия пронюхала, где их искать, заложница оказалось не подарок, а местный фермер оказался не вполне нормальным.
    Сэмпл: http://multi-up.com/1098526
    Тип релиза: WEB-DL 720p
    Контейнер: MKV
    Видео: 1280x544 (2.35:1), 23.976 fps, AVC, ~3954 Kbps, 0.237 bits/pixel
    Аудио 1: Russian, 48.0 KHz, AC3, 6 ch, 448 Kbps - Максим Логинофф
    Аудио 2: English, 48.0 KHz, AC3, 6 ch, 384 Kbps

    MediaInfo

    General
    Unique ID : 222895682580331920786000778138136998009 (0xA7B0259EE2002DB08C94C187B245F079)
    Complete name : D:\The Cottage. WEB-DL 720p.mkv
    Format : Matroska
    Format version : Version 4 / Version 2
    File size : 3.12 GiB
    Duration : 1h 31mn
    Overall bit rate : 4 883 Kbps
    Movie name :
    Encoded date : UTC 2016-04-21 14:47:47
    Writing application : mkvmerge v9.0.1 ('Obstacles') 64bit
    Writing library : libebml v1.3.3 + libmatroska v1.4.4
    DURATION : 01:31:31.552000000
    NUMBER_OF_FRAMES : 171611
    NUMBER_OF_BYTES : 307526912
    _STATISTICS_WRITING_APP : mkvmerge v9.0.1 ('Obstacles') 64bit
    _STATISTICS_WRITING_DATE_UT : 2016-04-21 14:47:47
    _STATISTICS_TAGS : BPS DURATION NUMBER_OF_FRAMES NUMBER_OF_BYTES
    Video
    ID : 1
    Format : AVC
    Format/Info : Advanced Video Codec
    Format profile : Main@L3.1
    Format settings, CABAC : No
    Format settings, ReFrames : 2 frames
    Codec ID : V_MPEG4/ISO/AVC
    Duration : 1h 31mn
    Bit rate : 3 954 Kbps
    Width : 1 280 pixels
    Height : 544 pixels
    Display aspect ratio : 2.35:1
    Frame rate mode : Constant
    Frame rate : 23.976 fps
    Color space : YUV
    Chroma subsampling : 4:2:0
    Bit depth : 8 bits
    Scan type : Progressive
    Bits/(Pixel*Frame) : 0.237
    Stream size : 2.53 GiB (81%)
    Language : English
    Default : Yes
    Forced : No
    Color range : Limited
    Color primaries : BT.709
    Transfer characteristics : BT.709
    Matrix coefficients : BT.709
    Audio #1
    ID : 2
    Format : AC-3
    Format/Info : Audio Coding 3
    Mode extension : CM (complete main)
    Format settings, Endianness : Big
    Codec ID : A_AC3
    Duration : 1h 31mn
    Bit rate mode : Constant
    Bit rate : 448 Kbps
    Channel(s) : 6 channels
    Channel positions : Front: L C R, Side: L R, LFE
    Sampling rate : 48.0 KHz
    Compression mode : Lossy
    Stream size : 293 MiB (9%)
    Title : Максим Логинофф
    Language : Russian
    Default : Yes
    Forced : No
    Audio #2
    ID : 3
    Format : AC-3
    Format/Info : Audio Coding 3
    Mode extension : CM (complete main)
    Format settings, Endianness : Big
    Codec ID : A_AC3
    Duration : 1h 31mn
    Bit rate mode : Constant
    Bit rate : 384 Kbps
    Channel(s) : 6 channels
    Channel positions : Front: L C R, Side: L R, LFE
    Sampling rate : 48.0 KHz
    Compression mode : Lossy
    Stream size : 251 MiB (8%)
    Language : English
    Default : No
    Forced : No
    Text
    ID : 4
    Format : UTF-8
    Codec ID : S_TEXT/UTF8
    Codec ID/Info : UTF-8 Plain Text
    Language : English
    Default : No
    Forced : No
    Menu
    00:00:00.000 : en:1
    00:08:03.000 : en:2
    00:15:28.000 : en:3
    00:19:53.000 : en:4
    00:27:50.000 : en:5
    00:33:59.000 : en:6
    00:43:55.000 : en:7
    00:49:51.000 : en:8
    00:56:37.000 : en:9
    01:03:22.000 : en:10
    01:11:11.000 : en:11
    01:19:18.000 : en:12

    Скриншоты

    Скачать .torrent

    Скачать торрент-файл бесплатно и на максимальной скорости!

    Как скачивать? · Что такое торрент? · Рейтинг и ограничения

    !ВНИМАНИЕ!
    Сайт не распространяет и не хранит электронные версии произведений, а занимается лишь лишь предоставлением доступа к создаваемому пользователями каталогу ссылок на торрент-файлы, которые содержат только списки хеш-сумм, убедительная просьба с жалобами обращаться напрямую к пользователю. Файлы для обмена на трекере предоставлены пользователями сайта, и администрация не несёт ответственности за их содержание. Просьба не заливать файлы, защищенные авторскими правами, а также файлы нелегального содержания!


    _________________
    [Профиль] [ЛС]
    Показать сообщения:    
    Ответить на тему

    Текущее время: Сегодня, в 20:33

    Часовой пояс: GMT + 2



    Вы не можете начинать темы
    Вы не можете отвечать на сообщения
    Вы не можете редактировать свои сообщения
    Вы не можете удалять свои сообщения
    Вы не можете голосовать в опросах
    Вы не можете прикреплять файлы к сообщениям
    Вы не можете скачивать файлы